<?xml version="1.0" standalone="no"?>
<!DOCTYPE svg PUBLIC "-//W3C//DTD SVG 1.1//EN" "http://www.w3.org/Graphics/SVG/1.1/DTD/svg11.dtd" >
<svg xmlns="http://www.w3.org/2000/svg" xmlns:xlink="http://www.w3.org/1999/xlink" version="1.1">
<metadata>
Created by FontForge 20170731 at Fri Sep 11 17:39:36 2015
 By Aleksey,,,
Copyright (c) 2015 by Kostas Bartsokas. All rights reserved.
</metadata>
<defs>
<font id="AvertaStd-Semibold" horiz-adv-x="607" >
  <font-face 
    font-family="AvertaStd-Semibold"
    font-weight="400"
    font-stretch="normal"
    units-per-em="1000"
    panose-1="0 0 7 0 0 0 0 0 0 0"
    ascent="783"
    descent="-217"
    x-height="488"
    cap-height="710"
    bbox="-227 -257 1427 983"
    underline-thickness="49"
    underline-position="-133"
    unicode-range="U+0020-2715"
  />
<missing-glyph horiz-adv-x="449" 
 />
    <glyph glyph-name=".notdef" horiz-adv-x="449" 
 />
    <glyph glyph-name=".null" horiz-adv-x="0" 
 />
    <glyph glyph-name="nonmarkingreturn" horiz-adv-x="333" 
 />
    <glyph glyph-name="space" unicode=" " horiz-adv-x="268" 
 />
    <glyph glyph-name="exclam" unicode="!" horiz-adv-x="270" 
d="M94 224l-20 512h127l-20 -512h-87zM135 -8q-32 0 -54 21.5t-22 52.5t22.5 53t53.5 22t53 -22t22 -53t-22 -52.5t-53 -21.5z" />
    <glyph glyph-name="quotedbl" unicode="&#x22;" horiz-adv-x="387" 
d="M32 457l31 253h120l-60 -253h-91zM204 457l31 253h120l-60 -253h-91z" />
    <glyph glyph-name="numbersign" unicode="#" horiz-adv-x="639" 
d="M117 -41l30 194h-110v85h123l23 147h-123v84h136l29 187h77l-29 -187h147l29 187h77l-28 -187h114l-1 -84h-127l-22 -147h125v-85h-138l-30 -194h-77l30 194h-147l-30 -194h-78zM237 238h148l22 147h-147z" />
    <glyph glyph-name="dollar" unicode="$" horiz-adv-x="573" 
d="M531 190q0 -79 -50 -130t-138 -62v-120h-91v121q-117 16 -202 100l71 85q82 -79 183 -79q45 0 72.5 20.5t27.5 55.5q0 38 -28.5 59t-98.5 43q-51 16 -81.5 28.5t-64.5 34.5t-50 55t-16 77q0 77 49.5 128.5t137.5 59.5v125h91v-131q99 -19 170 -77l-68 -84q-79 57 -159 57
q-44 0 -69.5 -18.5t-25.5 -51.5t28 -52t92 -39q59 -19 91 -32t66 -36.5t48.5 -56.5t14.5 -80z" />
    <glyph glyph-name="percent" unicode="%" horiz-adv-x="1023" 
d="M401 -22l-90 39l314 708l90 -39zM247 321q-85 0 -143.5 55.5t-58.5 143.5q0 83 56.5 140.5t145.5 57.5q84 0 142.5 -55.5t58.5 -142.5q0 -83 -56.5 -141t-144.5 -58zM247 406q48 0 77.5 32.5t29.5 80.5q0 50 -30.5 81t-76.5 31t-75.5 -32.5t-29.5 -79.5q0 -49 30.5 -81
t74.5 -32zM776 -8q-84 0 -142.5 55.5t-58.5 143.5q0 83 56.5 140.5t144.5 57.5q85 0 143.5 -55.5t58.5 -142.5q0 -84 -56.5 -141.5t-145.5 -57.5zM777 78q47 0 77 32.5t30 79.5q0 49 -31 80.5t-76 31.5q-47 0 -77 -32.5t-30 -79.5q0 -49 31 -80.5t76 -31.5z" />
    <glyph glyph-name="ampersand" unicode="&#x26;" horiz-adv-x="670" 
d="M513 0l-44 55h-2q-72 -63 -186 -63q-98 0 -164.5 60t-66.5 155q0 133 130 209l-79 99q11 88 72 145.5t147 57.5q149 0 221 -139l-96 -37q-42 75 -115 76q-47 0 -74.5 -25t-36.5 -62l252 -314h1q28 57 28 120l109 2q0 -125 -63 -215v-1l99 -123h-132zM167 214
q0 -51 35 -83t91 -32q63 0 111 35v2l-159 199q-78 -41 -78 -121z" />
    <glyph glyph-name="quotesingle" unicode="'" horiz-adv-x="215" 
d="M32 457l31 253h120l-60 -253h-91z" />
    <glyph glyph-name="parenleft" unicode="(" horiz-adv-x="305" 
d="M172 -154q-117 194 -117 449q0 265 120 451l85 -39q-101 -183 -101 -412q0 -218 99 -411z" />
    <glyph glyph-name="parenright" unicode=")" horiz-adv-x="305" 
d="M133 -154l-86 38q99 193 99 411q0 229 -101 412l85 39q120 -186 120 -451q0 -255 -117 -449z" />
    <glyph glyph-name="asterisk" unicode="*" horiz-adv-x="407" 
d="M168 386l4 108l-90 -57l-36 62l95 48l-96 51l37 62l90 -57l-4 107h71l-5 -107l92 56l35 -61l-95 -50l95 -49l-35 -62l-90 57l3 -108h-71z" />
    <glyph glyph-name="plus" unicode="+" horiz-adv-x="578" 
d="M237 42v184h-185v102h185v185h103v-185h185v-102h-185v-184h-103z" />
    <glyph glyph-name="comma" unicode="," horiz-adv-x="238" 
d="M27 -132l32 253h120l-70 -253h-82z" />
    <glyph glyph-name="hyphen" unicode="-" horiz-adv-x="407" 
d="M53 254v109h301v-109h-301z" />
    <glyph glyph-name="period" unicode="." horiz-adv-x="270" 
d="M135 -8q-32 0 -54 21.5t-22 52.5t22.5 53t53.5 22t53 -22t22 -53t-22 -52.5t-53 -21.5z" />
    <glyph glyph-name="slash" unicode="/" horiz-adv-x="430" 
d="M56 -112l-89 41l383 853l88 -41z" />
    <glyph glyph-name="zero" unicode="0" horiz-adv-x="632" 
d="M316 -8q-119 0 -191.5 93.5t-72.5 257.5q0 158 71 254.5t193 96.5q119 0 191.5 -93t72.5 -258q0 -158 -70.5 -254.5t-193.5 -96.5zM316 100q69 0 107.5 64t38.5 179t-39 179.5t-107 64.5t-107 -64.5t-39 -179.5q0 -113 39.5 -178t106.5 -65z" />
    <glyph glyph-name="one" unicode="1" horiz-adv-x="399" 
d="M197 0v548l-124 -93l-55 86l201 146h94v-687h-116z" />
    <glyph glyph-name="two" unicode="2" horiz-adv-x="532" 
d="M215 106h268v-106h-441l-2 77l221 233q49 51 73 89.5t24 79.5q0 46 -29.5 76.5t-75.5 30.5q-85 0 -131 -81l-83 59q69 130 222 130q89 0 152 -55.5t63 -146.5q0 -59 -25.5 -113t-88.5 -119l-147 -153v-1z" />
    <glyph glyph-name="three" unicode="3" horiz-adv-x="550" 
d="M387 356q52 -23 81.5 -67t29.5 -103q0 -87 -64.5 -140.5t-163.5 -53.5q-87 0 -151.5 40.5t-90.5 105.5l100 44q34 -82 134 -82q50 0 84 28.5t34 73.5q0 43 -34 73t-95 30h-52v98h63q51 0 75.5 26t24.5 65q0 41 -30 67t-73 26q-75 0 -113 -60l-93 50q26 53 81 85t128 32
q93 0 155 -49t62 -133q0 -50 -24.5 -90.5t-67.5 -64.5v-1z" />
    <glyph glyph-name="four" unicode="4" horiz-adv-x="578" 
d="M332 0v116h-300v79l319 492h97v-468h95v-103h-95v-116h-116zM167 216h169v275z" />
    <glyph glyph-name="five" unicode="5" horiz-adv-x="564" 
d="M296 441q92 0 154.5 -60t62.5 -161q0 -102 -67 -165t-176 -63q-71 0 -132.5 29t-101.5 82l84 67q49 -71 140 -71q62 0 98.5 34.5t36.5 88.5q0 55 -40 87t-93 32q-68 0 -112 -36l-63 22l20 360h372v-106h-263l-9 -155q48 15 89 15z" />
    <glyph glyph-name="six" unicode="6" horiz-adv-x="590" 
d="M328 438q93 0 153 -59.5t60 -161.5q0 -98 -70.5 -161.5t-174.5 -63.5q-105 0 -175 76.5t-70 200.5q0 169 101 291t256 150l37 -97q-200 -55 -257 -212h1q60 37 139 37zM304 100q53 0 87 35t34 84q0 50 -35 82t-91 32q-81 0 -135 -69v-9q0 -68 41 -111.5t99 -43.5z" />
    <glyph glyph-name="seven" unicode="7" horiz-adv-x="494" 
d="M23 687h427v-77l-252 -624l-117 22l239 573h-297v106z" />
    <glyph glyph-name="eight" unicode="8" horiz-adv-x="576" 
d="M416 371q52 -20 85.5 -67.5t33.5 -114.5q0 -89 -70.5 -142.5t-176.5 -53.5q-107 0 -176 54.5t-69 141.5q0 67 33 114t85 68v1q-33 15 -58.5 55t-25.5 90q0 83 59 130t152 47q95 0 154 -48t59 -129q0 -50 -26 -90t-59 -54v-2zM288 592q-44 0 -72.5 -25.5t-28.5 -60.5
q0 -38 28 -61.5t73 -23.5t73.5 23.5t28.5 61.5q0 37 -29 61.5t-73 24.5zM288 96q56 0 92 32t36 76q0 49 -35.5 80t-92.5 31t-92 -31t-35 -80q0 -46 37 -77t90 -31z" />
    <glyph glyph-name="nine" unicode="9" horiz-adv-x="584" 
d="M289 694q104 0 174.5 -75.5t70.5 -195.5q0 -174 -103 -296t-259 -151l-37 97q204 56 262 211l-1 1q-62 -37 -139 -37q-92 0 -152.5 59.5t-60.5 161.5q0 98 70 161.5t175 63.5zM161 468q0 -51 34 -82.5t91 -31.5q78 0 135 68v10q0 69 -36.5 112t-93.5 43q-58 0 -94 -35
t-36 -84z" />
    <glyph glyph-name="colon" unicode=":" horiz-adv-x="270" 
d="M131 346q-32 0 -54 21.5t-22 52.5t22.5 53t53.5 22t53 -22t22 -53t-22 -52.5t-53 -21.5zM131 -8q-32 0 -54 21.5t-22 52.5t22.5 53t53.5 22t53 -22t22 -53t-22 -52.5t-53 -21.5z" />
    <glyph glyph-name="semicolon" unicode=";" horiz-adv-x="248" 
d="M118 346q-32 0 -54 21.5t-22 52.5t22.5 53t53.5 22t53 -22t22 -53t-22 -52.5t-53 -21.5zM27 -132l32 253h120l-70 -253h-82z" />
    <glyph glyph-name="less" unicode="&#x3c;" horiz-adv-x="581" 
d="M517 31l-460 201v84l460 205v-113l-309 -133l309 -133v-111z" />
    <glyph glyph-name="equal" unicode="=" horiz-adv-x="591" 
d="M68 340v102h473v-102h-473zM68 112v102h473v-102h-473z" />
    <glyph glyph-name="greater" unicode="&#x3e;" horiz-adv-x="581" 
d="M64 31v111l309 133l-309 133v113l460 -205v-84z" />
    <glyph glyph-name="question" unicode="?" horiz-adv-x="463" 
d="M145 224v50q0 10 1 19.5t5 19.5t6.5 17t9.5 17.5l10 15t13 16t12.5 14t14.5 15t14 14.5q31 34 47.5 61.5t16.5 61.5q0 42 -25 65t-65 23q-29 0 -58 -16t-47 -43l-84 78q73 92 198 92q86 0 146.5 -50.5t60.5 -142.5q0 -89 -88 -175q-7 -7 -23.5 -22t-24.5 -22.5t-18 -19.5
t-14.5 -22.5t-5.5 -21.5l-3 -44h-99zM197 -8q-32 0 -54 21.5t-22 52.5t22.5 53t53.5 22t53 -22t22 -53t-22 -52.5t-53 -21.5z" />
    <glyph glyph-name="at" unicode="@" horiz-adv-x="900" 
d="M663 466l-27 -262q-1 -10 -1 -25q0 -29 9 -39.5t28 -10.5q43 0 69.5 55t26.5 109q0 121 -79 203.5t-206 82.5q-73 0 -133.5 -21.5t-100 -56t-67 -80t-39.5 -92t-12 -92.5q0 -125 84.5 -212.5t199.5 -87.5q105 0 207 51l37 -61q-110 -73 -244 -73q-158 0 -264 109
t-106 275q0 53 14 108.5t47.5 112t82 100.5t125 72t169.5 28q168 0 270 -103t102 -262q0 -39 -10 -79t-33 -81t-68 -67t-106 -26q-59 0 -92 39q-11 13 -18 43h-1q-44 -72 -133 -72q-74 0 -120.5 52.5t-46.5 137.5q0 35 10.5 72.5t31.5 74.5t60.5 61t89.5 24q83 0 122 -72h1
l7 65h114zM428 152q48 0 79 37t31 86q0 42 -24.5 69.5t-60.5 27.5q-49 0 -80.5 -35.5t-31.5 -85.5q0 -44 24.5 -71.5t62.5 -27.5z" />
    <glyph glyph-name="A" unicode="A" horiz-adv-x="697" 
d="M548 0l-54 153h-290l-53 -153h-126l265 710h118l266 -710h-126zM241 257h217l-108 308h-2z" />
    <glyph glyph-name="B" unicode="B" horiz-adv-x="648" 
d="M460 375q64 -16 102.5 -62.5t38.5 -117.5q0 -88 -59.5 -141.5t-173.5 -53.5h-281v710h247q111 0 171 -43.5t60 -129.5q0 -53 -26.5 -96.5t-78.5 -64.5v-1zM208 602v-186h115q50 0 84.5 23.5t34.5 70.5q0 93 -131 92h-103zM332 108q66 1 104.5 26t38.5 74q0 48 -36.5 76
t-104.5 28h-126v-204h124z" />
    <glyph glyph-name="C" unicode="C" horiz-adv-x="729" 
d="M413 -6q-152 0 -255 95.5t-103 263.5q0 157 95.5 261t262.5 104q169 0 280 -136l-89 -75q-80 97 -191 97q-104 0 -168 -69.5t-64 -181.5q0 -109 65 -177.5t167 -68.5q113 0 191 97l89 -76q-108 -134 -280 -134z" />
    <glyph glyph-name="D" unicode="D" horiz-adv-x="736" 
d="M87 0v710h226q167 0 268 -98.5t101 -257.5t-98.5 -256.5t-267.5 -97.5h-229zM208 108h101q111 0 179.5 69.5t68.5 176.5q0 108 -67.5 178t-174.5 70h-107v-494z" />
    <glyph glyph-name="E" unicode="E" 
d="M87 0v710h447v-108h-326v-196h263v-108h-263v-190h347v-108h-468z" />
    <glyph glyph-name="F" unicode="F" horiz-adv-x="595" 
d="M87 0v710h464v-108h-343v-212h288v-109h-288v-281h-121z" />
    <glyph glyph-name="G" unicode="G" horiz-adv-x="759" 
d="M413 -6q-157 0 -257.5 97.5t-100.5 262.5q0 160 96.5 262t257.5 102q77 0 150 -29.5t127 -87.5l-85 -74q-79 77 -193 77q-98 0 -162.5 -68.5t-64.5 -181.5q0 -108 63.5 -179t168.5 -71q87 0 158 47v120h-174v108h294v-296q-49 -41 -123 -65t-155 -24z" />
    <glyph glyph-name="H" unicode="H" horiz-adv-x="736" 
d="M87 0v710h121v-317h321v317h120v-710h-120v285h-321v-285h-121z" />
    <glyph glyph-name="I" unicode="I" horiz-adv-x="304" 
d="M91 0v710h121v-710h-121z" />
    <glyph glyph-name="J" unicode="J" horiz-adv-x="507" 
d="M219 -6q-53 0 -104 23t-84 66l68 88q22 -26 53 -44.5t62 -18.5q96 0 96 136v466h121v-467q0 -122 -50 -185.5t-162 -63.5z" />
    <glyph glyph-name="K" unicode="K" horiz-adv-x="664" 
d="M290 296h-2l-80 -95v-201h-121v710h121v-340h2l272 340h154l-267 -317l275 -393h-150z" />
    <glyph glyph-name="L" unicode="L" horiz-adv-x="573" 
d="M87 0v710h121v-602h329v-108h-450z" />
    <glyph glyph-name="M" unicode="M" horiz-adv-x="886" 
d="M678 710h121v-710h-121v476h-1l-195 -339h-79l-194 339h-1v-476h-121v710h121l234 -425h2z" />
    <glyph glyph-name="N" unicode="N" horiz-adv-x="763" 
d="M556 710h120v-710h-123l-345 503v-503h-121v710h120l347 -510h2v510z" />
    <glyph glyph-name="O" unicode="O" horiz-adv-x="827" 
d="M414 -8q-159 0 -259 102.5t-100 260.5t100 260.5t259 102.5q155 0 256.5 -101t101.5 -262t-101.5 -262t-256.5 -101zM414 105q99 0 165.5 71t66.5 179q0 109 -66.5 179.5t-165.5 70.5q-103 0 -168.5 -72t-65.5 -178t65.5 -178t168.5 -72z" />
    <glyph glyph-name="P" unicode="P" horiz-adv-x="629" 
d="M87 0v710h257q122 0 182.5 -62.5t60.5 -167.5q0 -112 -69 -169.5t-188 -57.5h-122v-253h-121zM208 362h110q72 0 108 32.5t36 87.5q0 57 -35 88.5t-100 31.5h-119v-240z" />
    <glyph glyph-name="Q" unicode="Q" horiz-adv-x="848" 
d="M792 65l-68 -86l-90 82q-94 -69 -220 -69q-159 0 -259 102.5t-100 260.5t100 260.5t259 102.5q155 0 256.5 -101t101.5 -262q0 -123 -63 -216zM414 105q74 0 130 39l-71 65l67 81l74 -66q32 58 32 131q0 106 -64.5 178t-167.5 72q-100 0 -167 -70.5t-67 -179.5t67 -179.5
t167 -70.5z" />
    <glyph glyph-name="R" unicode="R" horiz-adv-x="659" 
d="M618 0h-145l-170 253h-95v-253h-121v710h262q122 0 182.5 -63t60.5 -167q0 -170 -156 -214v-3zM208 602v-240h115q70 0 107 32.5t37 87.5q0 57 -35.5 88.5t-100.5 31.5h-123z" />
    <glyph glyph-name="S" unicode="S" horiz-adv-x="591" 
d="M299 -8q-149 0 -257 112l76 93q37 -45 86 -69t96 -24q57 0 87.5 23t30.5 63q0 43 -30 65t-107 49q-49 17 -80.5 32.5t-66 40.5t-51.5 60.5t-17 82.5q0 83 66 140.5t159 57.5q123 1 235 -87l-72 -95q-88 73 -163 73q-43 0 -71 -22t-29 -61q0 -19 7 -32.5t28.5 -26.5
t39 -20.5t58.5 -23.5q110 -43 145 -67q75 -53 75 -151q0 -102 -74.5 -157.5t-170.5 -55.5z" />
    <glyph glyph-name="T" unicode="T" horiz-adv-x="589" 
d="M233 0v602h-201v108h526v-108h-204v-602h-121z" />
    <glyph glyph-name="U" unicode="U" horiz-adv-x="719" 
d="M359 -8q-128 0 -205 79.5t-77 220.5v418h120v-409q0 -87 43.5 -141t118.5 -54q73 0 118 52.5t45 142.5v409h121v-418q0 -139 -76 -219.5t-208 -80.5z" />
    <glyph glyph-name="V" unicode="V" horiz-adv-x="691" 
d="M537 710h130l-265 -710h-107l-265 710h130l187 -537h1z" />
    <glyph glyph-name="W" unicode="W" horiz-adv-x="1035" 
d="M875 710h128l-225 -710h-113l-145 534h-2l-148 -534h-113l-225 710h129l152 -513h1l140 513h128l139 -514h1z" />
    <glyph glyph-name="X" unicode="X" horiz-adv-x="694" 
d="M521 0l-173 262h-2l-173 -262h-141l235 356l-230 354h139l171 -260h1l171 260h138l-230 -354l236 -356h-142z" />
    <glyph glyph-name="Y" unicode="Y" horiz-adv-x="625" 
d="M471 710h140l-239 -396v-314h-121v314l-237 396h138l159 -275h2z" />
    <glyph glyph-name="Z" unicode="Z" horiz-adv-x="626" 
d="M210 108h357v-108h-510v95l350 506v1h-334v108h492v-93l-355 -507v-2z" />
    <glyph glyph-name="bracketleft" unicode="[" horiz-adv-x="333" 
d="M59 -147v879h224v-86h-125v-706h125v-87h-224z" />
    <glyph glyph-name="backslash" unicode="\" horiz-adv-x="438" 
d="M374 -112l-382 853l88 41l383 -853z" />
    <glyph glyph-name="bracketright" unicode="]" horiz-adv-x="333" 
d="M274 -147h-224v87h125v706h-125v86h224v-879z" />
    <glyph glyph-name="asciicircum" unicode="^" horiz-adv-x="470" 
d="M55 500l137 210h85l138 -210h-98l-83 135l-85 -135h-94z" />
    <glyph glyph-name="underscore" unicode="_" horiz-adv-x="531" 
d="M-2 -104v77h535v-77h-535z" />
    <glyph glyph-name="grave" unicode="`" horiz-adv-x="503" 
d="M240 538l-124 145l123 -1l115 -144h-114z" />
    <glyph glyph-name="a" unicode="a" horiz-adv-x="611" 
d="M431 488h112v-488h-107v65h-2q-54 -73 -155 -73q-103 0 -169.5 69t-66.5 181q0 110 67 181.5t168 71.5q96 0 151 -66h2v59zM297 94q58 0 98.5 41t40.5 106t-39.5 109t-99.5 44t-100 -42t-40 -111q0 -65 39 -106t101 -41z" />
    <glyph glyph-name="b" unicode="b" horiz-adv-x="621" 
d="M341 495q102 0 169 -71.5t67 -181.5q0 -112 -67 -181t-170 -69q-102 0 -158 73h-2v-65h-107v736h112v-307h1q57 66 155 66zM323 94q61 0 100.5 41t39.5 106q0 69 -40.5 111t-100.5 42q-62 0 -102 -43.5t-40 -109.5q0 -65 41 -106t102 -41z" />
    <glyph glyph-name="c" unicode="c" horiz-adv-x="532" 
d="M293 -8q-109 0 -179 70t-70 181q0 112 71 182t182 70q59 0 114 -23.5t91 -67.5l-76 -66q-48 56 -123 56q-65 0 -105 -41.5t-40 -108.5t40 -108.5t105 -41.5q76 0 124 52l77 -68q-33 -38 -88.5 -62t-122.5 -24z" />
    <glyph glyph-name="d" unicode="d" horiz-adv-x="620" 
d="M436 736h111v-736h-107v65h-2q-56 -73 -158 -73q-103 0 -170 69t-67 181q0 110 67.5 181.5t168.5 71.5q98 0 155 -66h2v307zM297 94q61 0 102 41t41 106q0 66 -40 109.5t-102 43.5q-60 0 -100.5 -42t-40.5 -111q0 -65 39.5 -106t100.5 -41z" />
    <glyph glyph-name="e" unicode="e" horiz-adv-x="562" 
d="M519 250q0 -18 -3 -45h-356q11 -52 48 -81.5t91 -29.5q76 0 122 57l78 -67q-71 -92 -206 -92q-108 0 -178.5 69.5t-70.5 182.5q0 111 67.5 181t170.5 70q107 0 172 -68.5t65 -176.5zM288 394q-47 0 -80.5 -26t-45.5 -73h244q-11 46 -41 72.5t-77 26.5z" />
    <glyph glyph-name="f" unicode="f" horiz-adv-x="343" 
d="M91 0v393h-54v95h54v89q0 82 38 124.5t110 42.5q70 0 122 -34l-25 -94q-53 25 -81 25q-52 0 -52 -76v-77h120v-95h-120v-393h-112z" />
    <glyph glyph-name="g" unicode="g" 
d="M428 488h112v-438q0 -118 -60 -186.5t-189 -68.5q-114 0 -199 51l27 98q47 -25 82.5 -36.5t83.5 -11.5q69 0 107 34.5t38 85.5v52h-1q-58 -60 -149 -60q-103 0 -170.5 67t-67.5 174t65.5 177t166.5 70q92 0 152 -60h2v52zM295 111q61 0 99.5 40.5t38.5 102.5
q0 61 -39.5 100t-98.5 39q-62 0 -100.5 -39.5t-38.5 -101.5q0 -64 39.5 -102.5t99.5 -38.5z" />
    <glyph glyph-name="h" unicode="h" horiz-adv-x="598" 
d="M352 495q85 0 133.5 -49t48.5 -154v-292h-112v263q0 70 -26.5 100.5t-79.5 30.5q-62 0 -96.5 -37.5t-34.5 -108.5v-248h-112v736h112v-310h1q62 69 166 69z" />
    <glyph glyph-name="i" unicode="i" horiz-adv-x="272" 
d="M136 560q-31 0 -53 22t-22 53q0 30 22 52t53 22t53.5 -22t22.5 -52q0 -31 -22.5 -53t-53.5 -22zM80 0v488h112v-488h-112z" />
    <glyph glyph-name="j" unicode="j" horiz-adv-x="249" 
d="M125 560q-31 0 -53 22t-22 53q0 30 22 52t53 22t53.5 -22t22.5 -52q0 -31 -22.5 -53t-53.5 -22zM46 -206q-51 0 -95 18l19 97q22 -14 44 -14q25 0 40.5 18.5t15.5 53.5v521h112v-521q0 -82 -38 -127.5t-98 -45.5z" />
    <glyph glyph-name="k" unicode="k" horiz-adv-x="535" 
d="M268 205h-2l-81 -90v-115h-112v736h112v-471l200 223h133l-176 -197l179 -291h-126z" />
    <glyph glyph-name="l" unicode="l" horiz-adv-x="272" 
d="M80 0v736h112v-736h-112z" />
    <glyph glyph-name="m" unicode="m" horiz-adv-x="897" 
d="M661 495q82 0 126.5 -53t44.5 -160v-282h-112v254q0 140 -95 140q-49 0 -81.5 -40.5t-32.5 -110.5v-243h-112v254q0 140 -97 140q-52 0 -84.5 -40.5t-32.5 -110.5v-243h-112v488h112v-68h1q61 75 152 75q103 0 146 -81h2q63 81 175 81z" />
    <glyph glyph-name="n" unicode="n" horiz-adv-x="593" 
d="M350 495q84 0 131.5 -51t47.5 -157v-287h-112v258q0 74 -26.5 105t-79.5 31q-58 0 -92 -39t-34 -110v-245h-112v488h112v-68h1q63 75 164 75z" />
    <glyph glyph-name="o" unicode="o" horiz-adv-x="600" 
d="M300 -8q-114 0 -185 71t-71 180t71 180.5t185 71.5q113 0 184.5 -70t71.5 -182q0 -111 -71.5 -181t-184.5 -70zM300 94q60 0 101 42t41 107q0 67 -40.5 109t-101.5 42q-63 0 -102.5 -43t-39.5 -108q0 -63 40 -106t102 -43z" />
    <glyph glyph-name="p" unicode="p" horiz-adv-x="621" 
d="M341 495q102 0 169 -71.5t67 -181.5q0 -112 -67 -181t-170 -69q-98 0 -154 68h-1v-258h-112v686h112v-60q56 67 156 67zM323 94q61 0 100.5 41t39.5 106q0 69 -40.5 111t-100.5 42q-62 0 -102 -43.5t-40 -109.5q0 -65 41 -106t102 -41z" />
    <glyph glyph-name="q" unicode="q" horiz-adv-x="616" 
d="M436 488h112v-686h-112v258h-1q-56 -68 -155 -68q-103 0 -169.5 69t-66.5 181q0 110 67 181.5t168 71.5q100 0 156 -67h1v60zM298 94q60 0 101 41t41 106q0 66 -40 109.5t-102 43.5q-60 0 -100 -42t-40 -111q0 -65 39 -106t101 -41z" />
    <glyph glyph-name="r" unicode="r" horiz-adv-x="372" 
d="M338 495h14v-125q-26 2 -34 2q-62 0 -97.5 -39.5t-35.5 -101.5v-231h-112v488h112v-74h1q59 81 152 81z" />
    <glyph glyph-name="s" unicode="s" horiz-adv-x="449" 
d="M229 -8q-117 0 -197 71l56 84q58 -57 141 -57q32 0 50 13t18 35q0 17 -20.5 28.5t-75.5 30.5q-72 25 -110.5 60t-38.5 100q0 60 48.5 99t123.5 39q97 0 172 -61l-56 -88q-55 52 -122 52q-20 0 -36.5 -10.5t-16.5 -31.5q0 -30 77 -59q95 -37 119 -54q50 -35 50 -103
q0 -65 -46.5 -106.5t-135.5 -41.5z" />
    <glyph glyph-name="t" unicode="t" horiz-adv-x="365" 
d="M218 -8q-64 0 -100 41t-36 121v239h-60v95h60v162l112 12v-174h143v-95h-143v-228q0 -37 11 -52.5t36 -15.5q33 0 72 21l29 -97q-53 -29 -124 -29z" />
    <glyph glyph-name="u" unicode="u" horiz-adv-x="578" 
d="M397 488h112v-488h-112v64q-60 -72 -151 -72q-183 0 -183 199v297h112v-267q0 -71 22.5 -99t74.5 -28t88.5 42.5t36.5 117.5v234z" />
    <glyph glyph-name="v" unicode="v" horiz-adv-x="534" 
d="M394 488h120l-193 -488h-107l-194 488h119l128 -348h1z" />
    <glyph glyph-name="w" unicode="w" horiz-adv-x="771" 
d="M634 488h114l-168 -488h-103l-92 307h-1l-92 -307h-101l-168 488h114l105 -321h2l94 321h94l95 -322h2z" />
    <glyph glyph-name="x" unicode="x" horiz-adv-x="527" 
d="M375 0l-111 154h-1l-112 -154h-124l172 249l-171 239h130l104 -154h1l105 154h129l-170 -240l173 -248h-125z" />
    <glyph glyph-name="y" unicode="y" horiz-adv-x="535" 
d="M398 488h117l-268 -686h-118l88 226l-198 460h118l135 -330z" />
    <glyph glyph-name="z" unicode="z" horiz-adv-x="489" 
d="M445 411l-255 -315v-1h251v-95h-401v79l251 311v3h-234v95h388v-77z" />
    <glyph glyph-name="braceleft" unicode="{" horiz-adv-x="357" 
d="M229 396q0 -46 -13 -70.5t-43 -34.5q32 -11 44 -31.5t12 -74.5v-181q0 -38 13 -55.5t47 -17.5h23v-77h-66q-49 0 -81.5 33.5t-32.5 88.5v194q0 19 -1.5 29t-9 23t-25 18.5t-46.5 6.5v86q29 1 47 8t25 20t8.5 23t1.5 27v199q0 52 31.5 87t82.5 35h66v-77h-23
q-31 0 -45.5 -20.5t-14.5 -45.5v-193z" />
    <glyph glyph-name="bar" unicode="|" horiz-adv-x="316" 
d="M109 -115v852h97v-852h-97z" />
    <glyph glyph-name="braceright" unicode="}" horiz-adv-x="357" 
d="M225 411q0 -17 1.5 -27t8.5 -23t25 -20t47 -8v-86q-29 -1 -46.5 -6.5t-25 -18.5t-9 -23t-1.5 -29v-194q0 -55 -32.5 -88.5t-81.5 -33.5h-66v77h23q34 0 47 17.5t13 55.5v181q0 54 12 74.5t44 31.5q-30 10 -43 34.5t-13 70.5v193q0 25 -14.5 45.5t-45.5 20.5h-23v77h66
q51 0 82.5 -35t31.5 -87v-199z" />
    <glyph glyph-name="asciitilde" unicode="~" horiz-adv-x="568" 
d="M135 201l-80 32q19 55 53.5 88t82.5 33q47 0 103 -26q39 -21 70 -21q44 0 69 47l80 -27q-18 -56 -53 -91t-80 -35q-41 0 -106 28q-42 20 -68 20q-45 0 -71 -48z" />
    <glyph glyph-name="exclamdown" unicode="&#xa1;" horiz-adv-x="270" 
d="M135 495q31 0 53 -21.5t22 -52.5t-22 -53t-53 -22t-53.5 22t-22.5 53t22 52.5t54 21.5zM94 263h87l20 -512h-127z" />
    <glyph glyph-name="cent" unicode="&#xa2;" horiz-adv-x="548" 
d="M509 132q-59 -68 -163 -82v-98h-88v96q-95 12 -154.5 80.5t-59.5 168.5t58.5 167.5t155.5 81.5v97h88v-97q103 -15 161 -88l-76 -65q-50 55 -125 55q-66 0 -107 -41.5t-41 -107.5t41 -108.5t107 -42.5q78 0 126 53z" />
    <glyph glyph-name="sterling" unicode="&#xa3;" horiz-adv-x="566" 
d="M45 0v108h71v218h-58v82h58v49q0 120 57.5 177.5t147.5 57.5q58 0 109.5 -25.5t85.5 -71.5l-61 -81q-49 66 -118 66q-102 0 -102 -136v-36h162v-82h-160v-218h301v-108h-493z" />
    <glyph glyph-name="currency" unicode="&#xa4;" horiz-adv-x="510" 
d="M437 387q0 -55 -31 -102l78 -78l-51 -52l-79 79q-46 -30 -102 -30q-54 0 -100 30l-79 -78l-52 52l79 79q-30 46 -30 100t30 100l-79 80l52 52l79 -79q47 31 101 31t101 -31l79 80l52 -53l-79 -79q31 -47 31 -101zM253 284q43 1 73.5 31.5t31.5 72.5q-1 44 -31.5 74.5
t-73.5 30.5q-43 -1 -73.5 -31.5t-30.5 -72.5q0 -43 30.5 -73.5t73.5 -31.5z" />
    <glyph glyph-name="yen" unicode="&#xa5;" horiz-adv-x="580" 
d="M573 685l-152 -272h82v-70h-122l-26 -47h148v-69h-152v-227h-122v227h-160v69h156l-26 47h-130v70h91l-153 273h139l143 -278h2l142 278z" />
    <glyph glyph-name="brokenbar" unicode="&#xa6;" horiz-adv-x="316" 
d="M109 385v352h97v-352h-97zM109 -114v352h97v-352h-97z" />
    <glyph glyph-name="section" unicode="&#xa7;" horiz-adv-x="552" 
d="M420 137q59 -43 59 -119q0 -78 -55.5 -124.5t-147.5 -46.5q-130 0 -221 94l68 82q67 -71 151 -71q35 0 58 17.5t23 46.5t-21.5 44.5t-79.5 37.5q-40 15 -63.5 25t-52.5 26.5t-45 32.5t-27 39.5t-11 51.5q0 91 77 132q-55 43 -55 115q0 73 52 120t140 47q52 0 108 -21
t96 -55l-66 -81q-69 50 -132 50q-34 0 -54.5 -16t-20.5 -42t20.5 -41.5t73.5 -36.5q111 -45 140 -64q62 -45 63 -118q0 -81 -77 -125zM169 294q0 -30 26 -49.5t92 -44.5l39 -15q56 14 56 63q0 30 -24 47.5t-96 45.5l-35 14q-27 -6 -42.5 -23t-15.5 -38z" />
    <glyph glyph-name="dieresis" unicode="&#xa8;" horiz-adv-x="515" 
d="M159 542q-32 0 -54 22t-22 53q0 30 22 52t54 22q31 0 53 -22t22 -52q0 -31 -22 -53t-53 -22zM357 544q-31 0 -52.5 21.5t-21.5 51.5q0 29 21.5 51t52.5 22t53 -22t22 -51q0 -30 -22 -51.5t-53 -21.5z" />
    <glyph glyph-name="copyright" unicode="&#xa9;" horiz-adv-x="713" 
d="M356 4q-130 0 -220.5 92.5t-90.5 221.5q0 128 91 220.5t221 92.5t220.5 -92t90.5 -221q0 -128 -91 -221t-221 -93zM356 80q99 0 167 70t68 168q0 99 -67.5 168t-166.5 69q-100 0 -167.5 -70t-67.5 -168t67.5 -167.5t166.5 -69.5zM365 153q-70 0 -117 43t-47 120
q0 70 43.5 117t120.5 47q78 0 129 -62l-50 -43q-33 40 -79 40q-41 0 -67 -27t-26 -72q0 -44 25.5 -70.5t67.5 -26.5q49 0 79 38l50 -43q-50 -61 -129 -61z" />
    <glyph glyph-name="ordfeminine" unicode="&#xaa;" horiz-adv-x="421" 
d="M274 687h79v-293h-79v34h-1q-37 -40 -98 -40q-64 0 -103.5 42t-39.5 110q0 66 38.5 109t100.5 43q60 0 102 -45h1v40zM194 463q33 0 55.5 21.5t22.5 55.5q0 33 -22 55.5t-56 22.5t-57.5 -22t-23.5 -56t23 -55.5t58 -21.5z" />
    <glyph glyph-name="guillemotleft" unicode="&#xab;" horiz-adv-x="494" 
d="M274 33h-112l-121 213l123 217h111l-123 -217zM465 33h-112l-121 213l123 217h111l-123 -217z" />
    <glyph glyph-name="logicalnot" unicode="&#xac;" horiz-adv-x="552" 
d="M401 152v161h-351v100h452v-261h-101z" />
    <glyph glyph-name="registered" unicode="&#xae;" horiz-adv-x="717" 
d="M359 634q132 0 222.5 -93t90.5 -223q0 -129 -91 -222.5t-223 -93.5q-130 0 -221.5 93t-91.5 223q0 129 91.5 222.5t222.5 93.5zM358 78q100 0 168.5 70.5t68.5 169.5q0 100 -68 170t-168 70t-168.5 -71t-68.5 -170t68 -169t168 -70zM482 374q0 -74 -63 -97l79 -119h-78
l-72 110h-35v-110h-66v324h123q56 0 84 -29.5t28 -78.5zM314 421v-93h41q28 0 43 13t15 34t-15 33.5t-41 12.5h-43z" />
    <glyph glyph-name="macron" unicode="&#xaf;" horiz-adv-x="445" 
d="M74 566v94h298v-94h-298z" />
    <glyph glyph-name="degree" unicode="&#xb0;" horiz-adv-x="392" 
d="M196 441q-58 0 -99.5 40.5t-41.5 97.5q0 56 42.5 97.5t98.5 41.5q57 0 99 -41.5t42 -98.5q0 -56 -41.5 -96.5t-99.5 -40.5zM196 515q27 0 45.5 18.5t18.5 45.5t-19 46t-45 19t-45.5 -19.5t-19.5 -45.5q0 -27 19 -45.5t46 -18.5z" />
    <glyph glyph-name="plusminus" unicode="&#xb1;" horiz-adv-x="613" 
d="M244 171v184h-185v102h185v185h103v-185h185v-102h-185v-184h-103zM81 -3v102h473v-102h-473z" />
    <glyph glyph-name="uni00B2" unicode="&#xb2;" horiz-adv-x="344" 
 />
    <glyph glyph-name="uni00B3" unicode="&#xb3;" horiz-adv-x="351" 
 />
    <glyph glyph-name="acute" unicode="&#xb4;" horiz-adv-x="503" 
d="M149 538l115 144l123 1l-124 -145h-114z" />
    <glyph glyph-name="uni00B5" unicode="&#xb5;" horiz-adv-x="580" 
d="M401 488h112v-488h-102l-6 65h-1q-59 -73 -143 -73q-56 0 -86 32h-2q6 -53 6 -107v-115h-112v686h112v-254q0 -140 106 -140q51 0 83.5 40t32.5 110v244z" />
    <glyph glyph-name="paragraph" unicode="&#xb6;" horiz-adv-x="527" 
d="M366 -151v741h-62v-590h-72v316q-84 5 -135.5 50.5t-51.5 122.5q0 80 54.5 128t149.5 48h187v-816h-70z" />
    <glyph glyph-name="periodcentered" unicode="&#xb7;" horiz-adv-x="274" 
d="M136 171q-32 0 -54 21.5t-22 52.5t22.5 53t53.5 22t53 -22t22 -53t-22 -52.5t-53 -21.5z" />
    <glyph glyph-name="cedilla" unicode="&#xb8;" horiz-adv-x="378" 
d="M186 -32q92 -5 92 -80q0 -35 -29.5 -56.5t-89.5 -21.5q-29 0 -59 6v55q21 -7 50 -7q20 0 35.5 7.5t15.5 22.5q0 14 -22.5 24t-61.5 10v36l19 42h67l-18 -36z" />
    <glyph glyph-name="uni00B9" unicode="&#xb9;" horiz-adv-x="282" 
 />
    <glyph glyph-name="ordmasculine" unicode="&#xba;" horiz-adv-x="389" 
d="M189 388q-69 0 -113 43t-44 110q0 66 44 108.5t113 42.5t113.5 -42.5t44.5 -108.5q0 -68 -44.5 -110.5t-113.5 -42.5zM189 462q31 0 52 22.5t21 56.5t-20.5 56t-52.5 22t-52 -22.5t-20 -55.5q0 -34 20 -56.5t52 -22.5z" />
    <glyph glyph-name="guillemotright" unicode="&#xbb;" horiz-adv-x="494" 
d="M29 33l122 213l-123 217h111l123 -217l-121 -213h-112zM220 33l122 213l-123 217h111l123 -217l-121 -213h-112z" />
    <glyph glyph-name="onequarter" unicode="&#xbc;" horiz-adv-x="809" 
d="M291 -22l-90 39l313 708l91 -39zM131 299v295l-67 -46l-46 72l134 91h73v-412h-94zM637 0v64h-173v58l193 290h73v-267h57v-81h-57v-64h-93zM567 139h77v121z" />
    <glyph glyph-name="onehalf" unicode="&#xbd;" horiz-adv-x="842" 
d="M514 725l91 -39l-314 -708l-90 39zM225 299h-94v295l-67 -46l-46 72l134 91h73v-412zM661 85h152v-85h-288l-2 63l133 130q56 55 56 89q0 22 -14 35.5t-37 13.5q-44 0 -70 -42l-70 51q21 34 59.5 56t87.5 22q58 0 99.5 -34.5t41.5 -90.5q0 -38 -15.5 -68t-58.5 -70
l-74 -67v-3z" />
    <glyph glyph-name="threequarters" unicode="&#xbe;" horiz-adv-x="857" 
d="M563 725l91 -39l-314 -708l-90 39zM325 412q0 -54 -41.5 -87t-107.5 -33q-57 0 -99.5 27t-58.5 68l84 35q16 -47 67 -47q27 0 42.5 13.5t15.5 36.5q0 22 -17.5 35.5t-48.5 13.5h-30v70h37q24 0 39 12.5t15 30.5q0 21 -14.5 34t-39.5 13q-40 0 -56 -37l-78 42
q15 35 51.5 56.5t84.5 21.5q61 0 101 -30t40 -82q0 -62 -53 -93q67 -30 67 -100zM778 145h57v-81h-57v-64h-93v64h-173v58l193 290h73v-267zM692 139v121l-77 -121h77z" />
    <glyph glyph-name="questiondown" unicode="&#xbf;" horiz-adv-x="447" 
d="M266 495q32 0 54 -21.5t22 -52.5t-22.5 -53t-53.5 -22t-53 22t-22 53t22 52.5t53 21.5zM318 263v-50q0 -10 -1 -19.5t-5 -19.5t-6.5 -17t-9.5 -17.5l-10 -15t-13 -16t-12.5 -14t-14.5 -15t-14 -14.5q-31 -34 -47.5 -61.5t-16.5 -61.5q0 -42 25 -65t65 -23q29 0 58 16
t47 43l84 -78q-73 -92 -198 -92q-86 0 -146.5 50.5t-60.5 142.5q0 89 88 175q7 7 23.5 22t24.5 22.5t18 19.5t14.5 22.5t5.5 21.5l3 44h99z" />
    <glyph glyph-name="Agrave" unicode="&#xc0;" horiz-adv-x="697" 
d="M401 787h-114l-124 145l123 -1zM548 0l-54 153h-290l-53 -153h-126l265 710h118l266 -710h-126zM241 257h217l-108 308h-2z" />
    <glyph glyph-name="Aacute" unicode="&#xc1;" horiz-adv-x="697" 
d="M537 932l-124 -145h-114l115 144zM548 0l-54 153h-290l-53 -153h-126l265 710h118l266 -710h-126zM241 257h217l-108 308h-2z" />
    <glyph glyph-name="Acircumflex" unicode="&#xc2;" horiz-adv-x="697" 
d="M347 860l-55 -75h-109l113 147h100l118 -147h-110l-55 75h-2zM548 0l-54 153h-290l-53 -153h-126l265 710h118l266 -710h-126zM241 257h217l-108 308h-2z" />
    <glyph glyph-name="Atilde" unicode="&#xc3;" horiz-adv-x="697" 
d="M285 838q-37 0 -58 -52l-68 31q34 110 114 110q40 0 84 -28q40 -25 58 -25q36 0 57 52l68 -23q-15 -56 -44 -87.5t-67 -31.5q-37 0 -88 32q-35 22 -56 22zM548 0l-54 153h-290l-53 -153h-126l265 710h118l266 -710h-126zM241 257h217l-108 308h-2z" />
    <glyph glyph-name="Adieresis" unicode="&#xc4;" horiz-adv-x="697" 
d="M250 791q-32 0 -54 22t-22 53q0 30 22 52t54 22q31 0 53 -22t22 -52q0 -31 -22 -53t-53 -22zM448 793q-31 0 -52.5 21.5t-21.5 51.5t22 51.5t52 21.5q31 0 53 -22t22 -51q0 -30 -22 -51.5t-53 -21.5zM548 0l-54 153h-290l-53 -153h-126l265 710h118l266 -710h-126z
M241 257h217l-108 308h-2z" />
    <glyph glyph-name="Aring" unicode="&#xc5;" horiz-adv-x="697" 
d="M348 761q-44 0 -76 30.5t-32 74.5t31 74.5t77 30.5q45 0 77 -30t32 -75q0 -44 -31 -74.5t-78 -30.5zM348 905q-16 0 -27 -11.5t-11 -26.5q0 -16 11 -27t27 -11t27.5 11t11.5 27t-11.5 27t-27.5 11zM548 0l-54 153h-290l-53 -153h-126l265 710h118l266 -710h-126zM241 257
h217l-108 308h-2z" />
    <glyph glyph-name="AE" unicode="&#xc6;" horiz-adv-x="955" 
d="M555 108h347v-108h-468v153h-222l-78 -153h-127l365 710h510v-108h-327v-195h268v-108h-268v-191zM265 257h169v328h-2z" />
    <glyph glyph-name="Ccedilla" unicode="&#xc7;" horiz-adv-x="729" 
d="M413 107q113 0 191 97l89 -76q-105 -131 -275 -134l-12 -24l1 -2q92 -5 92 -80q0 -35 -29.5 -56.5t-89.5 -21.5q-29 0 -59 6v55q21 -7 50 -7q20 0 35.5 7.5t15.5 22.5q0 14 -22.5 24t-61.5 10v36l14 31v3q-130 19 -213.5 112t-83.5 243q0 157 95.5 261t262.5 104
q169 0 280 -136l-89 -75q-80 97 -191 97q-104 0 -168 -69.5t-64 -181.5q0 -109 65 -177.5t167 -68.5z" />
    <glyph glyph-name="Egrave" unicode="&#xc8;" 
d="M320 787l-124 145l123 -1l115 -144h-114zM87 0v710h447v-108h-326v-196h263v-108h-263v-190h347v-108h-468z" />
    <glyph glyph-name="Eacute" unicode="&#xc9;" 
d="M220 787l115 144l123 1l-124 -145h-114zM87 0v710h447v-108h-326v-196h263v-108h-263v-190h347v-108h-468z" />
    <glyph glyph-name="Ecircumflex" unicode="&#xca;" 
d="M318 860l-55 -75h-109l113 147h100l118 -147h-110l-55 75h-2zM208 108h347v-108h-468v710h447v-108h-326v-196h263v-108h-263v-190z" />
    <glyph glyph-name="Edieresis" unicode="&#xcb;" 
d="M221 791q-32 0 -54 22t-22 53q0 30 22 52t54 22q31 0 53 -22t22 -52q0 -31 -22 -53t-53 -22zM419 793q-31 0 -52.5 21.5t-21.5 51.5t21.5 51.5t52.5 21.5t53 -22t22 -51q0 -30 -22 -51.5t-53 -21.5zM87 0v710h447v-108h-326v-196h263v-108h-263v-190h347v-108h-468z" />
    <glyph glyph-name="Igrave" unicode="&#xcc;" horiz-adv-x="304" 
d="M92 787l-124 145l123 -1l115 -144h-114zM91 0v710h121v-710h-121z" />
    <glyph glyph-name="Iacute" unicode="&#xcd;" horiz-adv-x="304" 
d="M102 787l115 144l123 1l-124 -145h-114zM91 0v710h121v-710h-121z" />
    <glyph glyph-name="Icircumflex" unicode="&#xce;" horiz-adv-x="304" 
d="M148 860l-55 -75h-109l113 147h100l118 -147h-110l-55 75h-2zM91 0v710h121v-710h-121z" />
    <glyph glyph-name="Idieresis" unicode="&#xcf;" horiz-adv-x="304" 
d="M51 791q-32 0 -54 22t-22 53q0 30 22 52t54 22q31 0 53 -22t22 -52q0 -31 -22 -53t-53 -22zM249 793q-31 0 -52.5 21.5t-21.5 51.5t21.5 51.5t52.5 21.5t53 -22t22 -51q0 -30 -22 -51.5t-53 -21.5zM91 0v710h121v-710h-121z" />
    <glyph glyph-name="Eth" unicode="&#xd0;" horiz-adv-x="736" 
d="M313 710q167 0 268 -98.5t101 -257.5t-98.5 -256.5t-267.5 -97.5h-229v301h-59v103h59v306h226zM309 108q111 0 179.5 69.5t68.5 176.5q0 108 -67.5 178t-174.5 70h-107v-198h121v-103h-121v-193h101z" />
    <glyph glyph-name="Ntilde" unicode="&#xd1;" horiz-adv-x="763" 
d="M317 838q-37 0 -58 -52l-68 31q34 110 114 110q40 0 84 -28q40 -25 58 -25q36 0 57 52l68 -23q-15 -56 -44 -87.5t-67 -31.5q-37 0 -88 32q-35 22 -56 22zM556 710h120v-710h-123l-345 503v-503h-121v710h120l347 -510h2v510z" />
    <glyph glyph-name="Ograve" unicode="&#xd2;" horiz-adv-x="827" 
d="M357 787l-124 145l123 -1l115 -144h-114zM414 -8q-159 0 -259 102.5t-100 260.5t100 260.5t259 102.5q155 0 256.5 -101t101.5 -262t-101.5 -262t-256.5 -101zM414 105q99 0 165.5 71t66.5 179q0 109 -66.5 179.5t-165.5 70.5q-103 0 -168.5 -72t-65.5 -178t65.5 -178
t168.5 -72z" />
    <glyph glyph-name="Oacute" unicode="&#xd3;" horiz-adv-x="827" 
d="M362 787l115 144l123 1l-124 -145h-114zM414 -8q-159 0 -259 102.5t-100 260.5t100 260.5t259 102.5q155 0 256.5 -101t101.5 -262t-101.5 -262t-256.5 -101zM414 105q99 0 165.5 71t66.5 179q0 109 -66.5 179.5t-165.5 70.5q-103 0 -168.5 -72t-65.5 -178t65.5 -178
t168.5 -72z" />
    <glyph glyph-name="Ocircumflex" unicode="&#xd4;" horiz-adv-x="827" 
d="M413 860l-55 -75h-109l113 147h100l118 -147h-110l-55 75h-2zM414 718q155 0 256.5 -101t101.5 -262t-101.5 -262t-256.5 -101q-159 0 -259 102.5t-100 260.5t100 260.5t259 102.5zM414 105q99 0 165.5 71t66.5 179q0 109 -66.5 179.5t-165.5 70.5q-103 0 -168.5 -72
t-65.5 -178t65.5 -178t168.5 -72z" />
    <glyph glyph-name="Otilde" unicode="&#xd5;" horiz-adv-x="827" 
d="M495 784q-37 0 -88 32q-35 22 -56 22q-37 0 -58 -52l-68 31q34 110 114 110q40 0 84 -28q40 -25 58 -25q36 0 57 52l68 -23q-15 -56 -44 -87.5t-67 -31.5zM414 -8q-159 0 -259 102.5t-100 260.5t100 260.5t259 102.5q155 0 256.5 -101t101.5 -262t-101.5 -262
t-256.5 -101zM414 105q99 0 165.5 71t66.5 179q0 109 -66.5 179.5t-165.5 70.5q-103 0 -168.5 -72t-65.5 -178t65.5 -178t168.5 -72z" />
    <glyph glyph-name="Odieresis" unicode="&#xd6;" horiz-adv-x="827" 
d="M316 791q-32 0 -54 22t-22 53q0 30 22 52t54 22q31 0 53 -22t22 -52q0 -31 -22 -53t-53 -22zM514 793q-31 0 -52.5 21.5t-21.5 51.5t22 51.5t52 21.5q31 0 53 -22t22 -51q0 -30 -22 -51.5t-53 -21.5zM414 -8q-159 0 -259 102.5t-100 260.5t100 260.5t259 102.5
q155 0 256.5 -101t101.5 -262t-101.5 -262t-256.5 -101zM414 105q99 0 165.5 71t66.5 179q0 109 -66.5 179.5t-165.5 70.5q-103 0 -168.5 -72t-65.5 -178t65.5 -178t168.5 -72z" />
    <glyph glyph-name="multiply" unicode="&#xd7;" horiz-adv-x="524" 
d="M122 66l-72 71l141 140l-141 140l71 72l140 -141l141 141l72 -71l-141 -142l140 -140l-71 -70l-140 140z" />
    <glyph glyph-name="Oslash" unicode="&#xd8;" horiz-adv-x="827" 
d="M785 677l-85 -93q72 -96 72 -229q0 -161 -101.5 -262t-256.5 -101q-116 0 -205 58l-78 -85l-69 64l77 83q-84 98 -84 243q0 158 100 260.5t259 102.5q126 0 220 -69l83 90zM180 355q0 -86 44 -150l328 355q-61 45 -138 45q-103 0 -168.5 -72t-65.5 -178zM646 355
q0 75 -34 134l-321 -350q54 -34 123 -34q99 0 165.5 71t66.5 179z" />
    <glyph glyph-name="Ugrave" unicode="&#xd9;" horiz-adv-x="719" 
d="M322 787l-124 145l123 -1l115 -144h-114zM359 -8q-128 0 -205 79.5t-77 220.5v418h120v-409q0 -87 43.5 -141t118.5 -54q73 0 118 52.5t45 142.5v409h121v-418q0 -139 -76 -219.5t-208 -80.5z" />
    <glyph glyph-name="Uacute" unicode="&#xda;" horiz-adv-x="719" 
d="M282 787l115 144l123 1l-124 -145h-114zM359 -8q-128 0 -205 79.5t-77 220.5v418h120v-409q0 -87 43.5 -141t118.5 -54q73 0 118 52.5t45 142.5v409h121v-418q0 -139 -76 -219.5t-208 -80.5z" />
    <glyph glyph-name="Ucircumflex" unicode="&#xdb;" horiz-adv-x="719" 
d="M357 860l-55 -75h-109l113 147h100l118 -147h-110l-55 75h-2zM522 710h121v-418q0 -139 -76 -219.5t-208 -80.5q-128 0 -205 79.5t-77 220.5v418h120v-409q0 -87 43.5 -141t118.5 -54q73 0 118 52.5t45 142.5v409z" />
    <glyph glyph-name="Udieresis" unicode="&#xdc;" horiz-adv-x="719" 
d="M260 791q-32 0 -54 22t-22 53q0 30 22 52t54 22q31 0 53 -22t22 -52q0 -31 -22 -53t-53 -22zM458 793q-31 0 -52.5 21.5t-21.5 51.5t22 51.5t52 21.5q31 0 53 -22t22 -51q0 -30 -22 -51.5t-53 -21.5zM359 -8q-128 0 -205 79.5t-77 220.5v418h120v-409q0 -87 43.5 -141
t118.5 -54q73 0 118 52.5t45 142.5v409h121v-418q0 -139 -76 -219.5t-208 -80.5z" />
    <glyph glyph-name="Yacute" unicode="&#xdd;" horiz-adv-x="625" 
d="M481 932l-124 -145h-114l115 144zM471 710h140l-239 -396v-314h-121v314l-237 396h138l159 -275h2z" />
    <glyph glyph-name="Thorn" unicode="&#xde;" horiz-adv-x="649" 
d="M87 0v710h121v-131h157q121 0 181 -62.5t60 -167.5q0 -111 -68.5 -167.5t-187.5 -56.5h-142v-125h-121zM208 233h130q71 0 107 32t36 86q0 57 -35 88.5t-100 31.5h-138v-238z" />
    <glyph glyph-name="germandbls" unicode="&#xdf;" horiz-adv-x="639" 
d="M479 424q58 -27 91 -81.5t33 -121.5q0 -104 -61.5 -166.5t-161.5 -62.5h-103v101h76q58 0 97 36.5t39 93.5t-40.5 97.5t-108.5 40.5h-47v96h42q29 0 50.5 8t33.5 19t19 25t9 24t2 19q0 37 -30.5 64t-88.5 27q-72 0 -108 -36t-36 -118v-489h-112v486q0 258 252 258
q110 0 171.5 -51.5t61.5 -129.5q0 -93 -80 -137v-2z" />
    <glyph glyph-name="agrave" unicode="&#xe0;" horiz-adv-x="611" 
d="M384 556h-114l-124 145l123 -1zM431 488h112v-488h-107v65h-2q-54 -73 -155 -73q-103 0 -169.5 69t-66.5 181q0 110 67 181.5t168 71.5q96 0 151 -66h2v59zM297 94q58 0 98.5 41t40.5 106t-39.5 109t-99.5 44t-100 -42t-40 -111q0 -65 39 -106t101 -41z" />
    <glyph glyph-name="aacute" unicode="&#xe1;" horiz-adv-x="611" 
d="M471 701l-124 -145h-114l115 144zM431 488h112v-488h-107v65h-2q-54 -73 -155 -73q-103 0 -169.5 69t-66.5 181q0 110 67 181.5t168 71.5q96 0 151 -66h2v59zM297 94q58 0 98.5 41t40.5 106t-39.5 109t-99.5 44t-100 -42t-40 -111q0 -65 39 -106t101 -41z" />
    <glyph glyph-name="acircumflex" unicode="&#xe2;" horiz-adv-x="611" 
d="M303 629l-55 -75h-109l113 147h100l118 -147h-110l-55 75h-2zM431 488h112v-488h-107v65h-2q-54 -73 -155 -73q-103 0 -169.5 69t-66.5 181q0 110 67 181.5t168 71.5q96 0 151 -66h2v59zM297 94q58 0 98.5 41t40.5 106t-39.5 109t-99.5 44t-100 -42t-40 -111
q0 -65 39 -106t101 -41z" />
    <glyph glyph-name="atilde" unicode="&#xe3;" horiz-adv-x="611" 
d="M241 607q-37 0 -58 -52l-68 31q34 110 114 110q40 0 84 -28q40 -25 58 -25q36 0 57 52l68 -23q-15 -56 -44 -87.5t-67 -31.5q-37 0 -88 32q-35 22 -56 22zM431 488h112v-488h-107v65h-2q-54 -73 -155 -73q-103 0 -169.5 69t-66.5 181q0 110 67 181.5t168 71.5
q96 0 151 -66h2v59zM297 94q58 0 98.5 41t40.5 106t-39.5 109t-99.5 44t-100 -42t-40 -111q0 -65 39 -106t101 -41z" />
    <glyph glyph-name="adieresis" unicode="&#xe4;" horiz-adv-x="611" 
d="M206 560q-32 0 -54 22t-22 53q0 30 22 52t54 22q31 0 53 -22t22 -52q0 -31 -22 -53t-53 -22zM404 562q-31 0 -52.5 21.5t-21.5 51.5q0 29 22 51t52 22q31 0 53 -22t22 -51q0 -30 -22 -51.5t-53 -21.5zM431 488h112v-488h-107v65h-2q-54 -73 -155 -73q-103 0 -169.5 69
t-66.5 181q0 110 67 181.5t168 71.5q96 0 151 -66h2v59zM297 94q58 0 98.5 41t40.5 106t-39.5 109t-99.5 44t-100 -42t-40 -111q0 -65 39 -106t101 -41z" />
    <glyph glyph-name="aring" unicode="&#xe5;" horiz-adv-x="611" 
d="M304 530q-44 0 -76 30.5t-32 74.5q0 43 31 74t77 31q45 0 77 -30t32 -75q0 -44 -31 -74.5t-78 -30.5zM304 674q-16 0 -27 -11.5t-11 -26.5q0 -16 11 -27t27 -11t27.5 11t11.5 27t-11.5 27t-27.5 11zM431 488h112v-488h-107v65h-2q-54 -73 -155 -73q-103 0 -169.5 69
t-66.5 181q0 110 67 181.5t168 71.5q96 0 151 -66h2v59zM297 94q58 0 98.5 41t40.5 106t-39.5 109t-99.5 44t-100 -42t-40 -111q0 -65 39 -106t101 -41z" />
    <glyph glyph-name="ae" unicode="&#xe6;" horiz-adv-x="789" 
d="M760 250q0 -32 -3 -45h-326q10 -51 43.5 -81t83.5 -30q57 0 105 57l77 -67q-73 -92 -188 -92q-104 0 -168 77h-2q-59 -77 -173 -77q-89 0 -134 42t-45 109q0 73 49.5 114.5t143.5 41.5h97v6q0 49 -18.5 69t-56.5 20q-67 0 -136 -33l-43 89q86 46 187 46q103 0 141 -75h1
q61 74 160 74q90 0 147.5 -69t57.5 -176zM546 394q-40 0 -70 -25.5t-42 -69.5h213q-11 43 -38 69t-63 26zM220 89q38 0 68.5 24t32.5 48v46l-87 -1q-91 0 -91 -59q0 -25 20 -41.5t57 -16.5z" />
    <glyph glyph-name="ccedilla" unicode="&#xe7;" horiz-adv-x="532" 
d="M308 -8l-11 -22l1 -2q92 -5 92 -80q0 -35 -29.5 -56.5t-89.5 -21.5q-29 0 -59 6v55q21 -7 50 -7q20 0 35.5 7.5t15.5 22.5q0 14 -22.5 24t-61.5 10v36l14 31v1q-89 16 -144 83t-55 164q0 112 71 182t182 70q59 0 114 -23.5t91 -67.5l-76 -66q-48 56 -123 56
q-65 0 -105 -41.5t-40 -108.5t40 -108.5t105 -41.5q76 0 124 52l77 -68q-71 -80 -196 -86z" />
    <glyph glyph-name="egrave" unicode="&#xe8;" horiz-adv-x="562" 
d="M370 556h-114l-124 145l123 -1zM519 250q0 -18 -3 -45h-356q11 -52 48 -81.5t91 -29.5q76 0 122 57l78 -67q-71 -92 -206 -92q-108 0 -178.5 69.5t-70.5 182.5q0 111 67.5 181t170.5 70q107 0 172 -68.5t65 -176.5zM288 394q-47 0 -80.5 -26t-45.5 -73h244
q-11 46 -41 72.5t-77 26.5z" />
    <glyph glyph-name="eacute" unicode="&#xe9;" horiz-adv-x="562" 
d="M460 701l-124 -145h-114l115 144zM519 250q0 -18 -3 -45h-356q11 -52 48 -81.5t91 -29.5q76 0 122 57l78 -67q-71 -92 -206 -92q-108 0 -178.5 69.5t-70.5 182.5q0 111 67.5 181t170.5 70q107 0 172 -68.5t65 -176.5zM288 394q-47 0 -80.5 -26t-45.5 -73h244
q-11 46 -41 72.5t-77 26.5z" />
    <glyph glyph-name="ecircumflex" unicode="&#xea;" horiz-adv-x="562" 
d="M289 629l-55 -75h-109l113 147h100l118 -147h-110l-55 75h-2zM519 250q0 -18 -3 -45h-356q11 -52 48 -81.5t91 -29.5q76 0 122 57l78 -67q-71 -92 -206 -92q-108 0 -178.5 69.5t-70.5 182.5q0 111 67.5 181t170.5 70q107 0 172 -68.5t65 -176.5zM288 394q-47 0 -80.5 -26
t-45.5 -73h244q-11 46 -41 72.5t-77 26.5z" />
    <glyph glyph-name="edieresis" unicode="&#xeb;" horiz-adv-x="562" 
d="M192 560q-32 0 -54 22t-22 53q0 30 22 52t54 22q31 0 53 -22t22 -52q0 -31 -22 -53t-53 -22zM390 562q-31 0 -52.5 21.5t-21.5 51.5q0 29 22 51t52 22q31 0 53 -22t22 -51q0 -30 -22 -51.5t-53 -21.5zM519 250q0 -18 -3 -45h-356q11 -52 48 -81.5t91 -29.5q76 0 122 57
l78 -67q-71 -92 -206 -92q-108 0 -178.5 69.5t-70.5 182.5q0 111 67.5 181t170.5 70q107 0 172 -68.5t65 -176.5zM288 394q-47 0 -80.5 -26t-45.5 -73h244q-11 46 -41 72.5t-77 26.5z" />
    <glyph glyph-name="igrave" unicode="&#xec;" horiz-adv-x="272" 
d="M79 556l-90 145l123 -1l81 -144h-114zM80 0v488h112v-488h-112z" />
    <glyph glyph-name="iacute" unicode="&#xed;" horiz-adv-x="272" 
d="M84 556l115 144l123 1l-124 -145h-114zM80 0v488h112v-488h-112z" />
    <glyph glyph-name="icircumflex" unicode="&#xee;" horiz-adv-x="272" 
d="M136 629h-2l-55 -75h-109l113 147h100l118 -147h-110zM80 0v488h112v-488h-112z" />
    <glyph glyph-name="idieresis" unicode="&#xef;" horiz-adv-x="272" 
d="M49 560q-32 0 -54 22t-22 53q0 30 22 52t54 22q31 0 53 -22t22 -52q0 -31 -22 -53t-53 -22zM225 562q-31 0 -53 21.5t-22 51.5q0 29 22 51t53 22q30 0 52 -22t22 -51q0 -30 -22 -51.5t-52 -21.5zM80 0v488h112v-488h-112z" />
    <glyph glyph-name="eth" unicode="&#xf0;" horiz-adv-x="596" 
d="M551 253v-2q0 -114 -71.5 -186.5t-184.5 -72.5q-106 0 -178 68t-72 171q0 111 67.5 178.5t168.5 67.5q57 0 109 -26l1 1q-45 77 -120 129l-66 -51l-49 55l45 36v2q-39 19 -79 32l54 86q67 -24 113 -51l69 55l49 -59l-51 -39v-1q92 -71 143.5 -171.5t51.5 -221.5zM297 94
q60 0 99.5 41t39.5 104q0 60 -39.5 99.5t-100.5 39.5q-59 0 -98 -40.5t-39 -98.5q0 -63 39.5 -104t98.5 -41z" />
    <glyph glyph-name="ntilde" unicode="&#xf1;" horiz-adv-x="593" 
d="M232 607q-37 0 -58 -52l-68 31q34 110 114 110q40 0 84 -28q40 -25 58 -25q36 0 57 52l68 -23q-15 -56 -44 -87.5t-67 -31.5q-37 0 -88 32q-35 22 -56 22zM350 495q84 0 131.5 -51t47.5 -157v-287h-112v258q0 74 -26.5 105t-79.5 31q-58 0 -92 -39t-34 -110v-245h-112
v488h112v-68h1q63 75 164 75z" />
    <glyph glyph-name="ograve" unicode="&#xf2;" horiz-adv-x="600" 
d="M256 556l-124 145l123 -1l115 -144h-114zM300 -8q-114 0 -185 71t-71 180t71 180.5t185 71.5q113 0 184.5 -70t71.5 -182q0 -111 -71.5 -181t-184.5 -70zM300 94q60 0 101 42t41 107q0 67 -40.5 109t-101.5 42q-63 0 -102.5 -43t-39.5 -108q0 -63 40 -106t102 -43z" />
    <glyph glyph-name="oacute" unicode="&#xf3;" horiz-adv-x="600" 
d="M240 556l115 144l123 1l-124 -145h-114zM300 -8q-114 0 -185 71t-71 180t71 180.5t185 71.5q113 0 184.5 -70t71.5 -182q0 -111 -71.5 -181t-184.5 -70zM300 94q60 0 101 42t41 107q0 67 -40.5 109t-101.5 42q-63 0 -102.5 -43t-39.5 -108q0 -63 40 -106t102 -43z" />
    <glyph glyph-name="ocircumflex" unicode="&#xf4;" horiz-adv-x="600" 
d="M298 629l-55 -75h-109l113 147h100l118 -147h-110l-55 75h-2zM300 495q113 0 184.5 -70t71.5 -182q0 -111 -71.5 -181t-184.5 -70q-114 0 -185 71t-71 180t71 180.5t185 71.5zM300 94q60 0 101 42t41 107q0 67 -40.5 109t-101.5 42q-63 0 -102.5 -43t-39.5 -108
q0 -63 40 -106t102 -43z" />
    <glyph glyph-name="otilde" unicode="&#xf5;" horiz-adv-x="600" 
d="M380 553q-37 0 -88 32q-35 22 -56 22q-37 0 -58 -52l-68 31q34 110 114 110q40 0 84 -28q40 -25 58 -25q36 0 57 52l68 -23q-15 -56 -44 -87.5t-67 -31.5zM300 -8q-114 0 -185 71t-71 180t71 180.5t185 71.5q113 0 184.5 -70t71.5 -182q0 -111 -71.5 -181t-184.5 -70z
M300 94q60 0 101 42t41 107q0 67 -40.5 109t-101.5 42q-63 0 -102.5 -43t-39.5 -108q0 -63 40 -106t102 -43z" />
    <glyph glyph-name="odieresis" unicode="&#xf6;" horiz-adv-x="600" 
d="M201 560q-32 0 -54 22t-22 53q0 30 22 52t54 22q31 0 53 -22t22 -52q0 -31 -22 -53t-53 -22zM399 562q-31 0 -52.5 21.5t-21.5 51.5q0 29 21.5 51t52.5 22t53 -22t22 -51q0 -30 -22 -51.5t-53 -21.5zM300 -8q-114 0 -185 71t-71 180t71 180.5t185 71.5q113 0 184.5 -70
t71.5 -182q0 -111 -71.5 -181t-184.5 -70zM300 94q60 0 101 42t41 107q0 67 -40.5 109t-101.5 42q-63 0 -102.5 -43t-39.5 -108q0 -63 40 -106t102 -43z" />
    <glyph glyph-name="divide" unicode="&#xf7;" horiz-adv-x="573" 
d="M290 396q-31 0 -53 22t-22 53q0 30 22 52t53 22t53.5 -22t22.5 -52q0 -31 -22.5 -53t-53.5 -22zM59 226v102h473v-102h-473zM290 -3q-31 0 -53 22t-22 53q0 30 22 52t53 22t53.5 -22t22.5 -52q0 -31 -22.5 -53t-53.5 -22z" />
    <glyph glyph-name="oslash" unicode="&#xf8;" horiz-adv-x="600" 
d="M569 459l-59 -63q46 -67 46 -153q0 -111 -71.5 -181t-184.5 -70q-76 0 -135 34l-51 -55l-60 56l47 51q-57 68 -57 165q0 109 71 180.5t185 71.5q88 0 151 -43l59 63zM158 243q0 -44 22 -82l197 211q-35 22 -77 22q-63 0 -102.5 -43t-39.5 -108zM442 243q0 35 -13 66
l-189 -202q26 -13 60 -13q60 0 101 42t41 107z" />
    <glyph glyph-name="ugrave" unicode="&#xf9;" horiz-adv-x="578" 
d="M368 556h-114l-124 145l123 -1zM397 488h112v-488h-112v64q-60 -72 -151 -72q-183 0 -183 199v297h112v-267q0 -71 22.5 -99t74.5 -28t88.5 42.5t36.5 117.5v234z" />
    <glyph glyph-name="uacute" unicode="&#xfa;" horiz-adv-x="578" 
d="M467 701l-124 -145h-114l115 144zM397 488h112v-488h-112v64q-60 -72 -151 -72q-183 0 -183 199v297h112v-267q0 -71 22.5 -99t74.5 -28t88.5 42.5t36.5 117.5v234z" />
    <glyph glyph-name="ucircumflex" unicode="&#xfb;" horiz-adv-x="578" 
d="M285 629l-55 -75h-109l113 147h100l118 -147h-110l-55 75h-2zM397 488h112v-488h-112v64q-60 -72 -151 -72q-183 0 -183 199v297h112v-267q0 -71 22.5 -99t74.5 -28t88.5 42.5t36.5 117.5v234z" />
    <glyph glyph-name="udieresis" unicode="&#xfc;" horiz-adv-x="578" 
d="M188 560q-32 0 -54 22t-22 53q0 30 22 52t54 22q31 0 53 -22t22 -52q0 -31 -22 -53t-53 -22zM386 562q-31 0 -52.5 21.5t-21.5 51.5q0 29 22 51t52 22q31 0 53 -22t22 -51q0 -30 -22 -51.5t-53 -21.5zM397 488h112v-488h-112v64q-60 -72 -151 -72q-183 0 -183 199v297
h112v-267q0 -71 22.5 -99t74.5 -28t88.5 42.5t36.5 117.5v234z" />
    <glyph glyph-name="yacute" unicode="&#xfd;" horiz-adv-x="535" 
d="M429 701l-124 -145h-114l115 144zM398 488h117l-268 -686h-118l88 226l-198 460h118l135 -330z" />
    <glyph glyph-name="thorn" unicode="&#xfe;" horiz-adv-x="621" 
d="M341 495q102 0 169 -71.5t67 -181.5q0 -112 -67 -181t-170 -69q-98 0 -154 68h-1v-258h-112v934h112v-308q56 67 156 67zM323 94q61 0 100.5 41t39.5 106q0 69 -40.5 111t-100.5 42q-62 0 -102 -43.5t-40 -109.5q0 -65 41 -106t102 -41z" />
    <glyph glyph-name="ydieresis" unicode="&#xff;" horiz-adv-x="535" 
d="M169 560q-32 0 -54 22t-22 53q0 30 22 52t54 22q31 0 53 -22t22 -52q0 -31 -22 -53t-53 -22zM367 562q-31 0 -52.5 21.5t-21.5 51.5q0 29 21.5 51t52.5 22t53 -22t22 -51q0 -30 -22 -51.5t-53 -21.5zM398 488h117l-268 -686h-118l88 226l-198 460h118l135 -330z" />
    <glyph glyph-name="Amacron" unicode="&#x100;" horiz-adv-x="697" 
d="M498 909v-94h-298v94h298zM548 0l-54 153h-290l-53 -153h-126l265 710h118l266 -710h-126zM241 257h217l-108 308h-2z" />
    <glyph glyph-name="amacron" unicode="&#x101;" horiz-adv-x="611" 
d="M454 678v-94h-298v94h298zM431 488h112v-488h-107v65h-2q-54 -73 -155 -73q-103 0 -169.5 69t-66.5 181q0 110 67 181.5t168 71.5q96 0 151 -66h2v59zM297 94q58 0 98.5 41t40.5 106t-39.5 109t-99.5 44t-100 -42t-40 -111q0 -65 39 -106t101 -41z" />
    <glyph glyph-name="Abreve" unicode="&#x102;" horiz-adv-x="697" 
d="M349 782q-63 0 -107 38.5t-49 107.5h88q2 -30 20 -49t48 -19q29 0 48 18.5t20 49.5h88q-5 -65 -47.5 -105.5t-108.5 -40.5zM548 0l-54 153h-290l-53 -153h-126l265 710h118l266 -710h-126zM241 257h217l-108 308h-2z" />
    <glyph glyph-name="abreve" unicode="&#x103;" horiz-adv-x="611" 
d="M305 551q-63 0 -107 38.5t-49 107.5h88q2 -30 20 -49t48 -19q29 0 48 18.5t20 49.5h88q-5 -65 -47.5 -105.5t-108.5 -40.5zM431 488h112v-488h-107v65h-2q-54 -73 -155 -73q-103 0 -169.5 69t-66.5 181q0 110 67 181.5t168 71.5q96 0 151 -66h2v59zM297 94q58 0 98.5 41
t40.5 106t-39.5 109t-99.5 44t-100 -42t-40 -111q0 -65 39 -106t101 -41z" />
    <glyph glyph-name="Aogonek" unicode="&#x104;" horiz-adv-x="697" 
d="M614 -116q23 0 41 8l7 -68q-28 -12 -72 -12q-49 0 -78.5 24t-29.5 64q0 56 66 101l-54 152h-290l-53 -153h-126l265 710h118l266 -710h-24q-36 -8 -57.5 -29.5t-21.5 -45.5q0 -41 43 -41zM241 257h217l-108 308h-2z" />
    <glyph glyph-name="aogonek" unicode="&#x105;" horiz-adv-x="611" 
d="M537 -108l7 -68q-28 -12 -72 -12q-49 0 -78.5 24t-29.5 64q0 26 19 55t53 50v60h-2q-54 -73 -155 -73q-103 0 -169.5 69t-66.5 181q0 110 67 181.5t168 71.5q96 0 151 -66h2v59h112v-488h-11q-36 -8 -57.5 -29.5t-21.5 -45.5q0 -41 43 -41q23 0 41 8zM297 94
q58 0 98.5 41t40.5 106t-39.5 109t-99.5 44t-100 -42t-40 -111q0 -65 39 -106t101 -41z" />
    <glyph glyph-name="Cacute" unicode="&#x106;" horiz-adv-x="729" 
d="M349 787l115 144l123 1l-124 -145h-114zM413 -6q-152 0 -255 95.5t-103 263.5q0 157 95.5 261t262.5 104q169 0 280 -136l-89 -75q-80 97 -191 97q-104 0 -168 -69.5t-64 -181.5q0 -109 65 -177.5t167 -68.5q113 0 191 97l89 -76q-108 -134 -280 -134z" />
    <glyph glyph-name="cacute" unicode="&#x107;" horiz-adv-x="532" 
d="M226 556l115 144l123 1l-124 -145h-114zM293 -8q-109 0 -179 70t-70 181q0 112 71 182t182 70q59 0 114 -23.5t91 -67.5l-76 -66q-48 56 -123 56q-65 0 -105 -41.5t-40 -108.5t40 -108.5t105 -41.5q76 0 124 52l77 -68q-33 -38 -88.5 -62t-122.5 -24z" />
    <glyph glyph-name="Ccircumflex" unicode="&#x108;" horiz-adv-x="729" 
d="M409 860l-55 -75h-109l113 147h100l118 -147h-110l-55 75h-2zM413 107q113 0 191 97l89 -76q-108 -134 -280 -134q-152 0 -255 95.5t-103 263.5q0 157 95.5 261t262.5 104q169 0 280 -136l-89 -75q-80 97 -191 97q-104 0 -168 -69.5t-64 -181.5q0 -109 65 -177.5
t167 -68.5z" />
    <glyph glyph-name="ccircumflex" unicode="&#x109;" horiz-adv-x="532" 
d="M297 629l-55 -75h-109l113 147h100l118 -147h-110l-55 75h-2zM427 146l77 -68q-33 -38 -88.5 -62t-122.5 -24q-109 0 -179 70t-70 181q0 112 71 182t182 70q59 0 114 -23.5t91 -67.5l-76 -66q-48 56 -123 56q-65 0 -105 -41.5t-40 -108.5t40 -108.5t105 -41.5
q76 0 124 52z" />
    <glyph glyph-name="Cdotaccent" unicode="&#x10a;" horiz-adv-x="729" 
d="M411 791q-31 0 -53 22t-22 53q0 30 22 52t53 22t53.5 -22t22.5 -52q0 -31 -22.5 -53t-53.5 -22zM413 -6q-152 0 -255 95.5t-103 263.5q0 157 95.5 261t262.5 104q169 0 280 -136l-89 -75q-80 97 -191 97q-104 0 -168 -69.5t-64 -181.5q0 -109 65 -177.5t167 -68.5
q113 0 191 97l89 -76q-108 -134 -280 -134z" />
    <glyph glyph-name="cdotaccent" unicode="&#x10b;" horiz-adv-x="532" 
d="M299 560q-31 0 -53 22t-22 53q0 30 22 52t53 22t53.5 -22t22.5 -52q0 -31 -22.5 -53t-53.5 -22zM293 -8q-109 0 -179 70t-70 181q0 112 71 182t182 70q59 0 114 -23.5t91 -67.5l-76 -66q-48 56 -123 56q-65 0 -105 -41.5t-40 -108.5t40 -108.5t105 -41.5q76 0 124 52
l77 -68q-33 -38 -88.5 -62t-122.5 -24z" />
    <glyph glyph-name="Ccaron" unicode="&#x10c;" horiz-adv-x="729" 
d="M458 785h-100l-113 147h109l55 -76h2l55 76h110zM413 107q113 0 191 97l89 -76q-108 -134 -280 -134q-152 0 -255 95.5t-103 263.5q0 157 95.5 261t262.5 104q169 0 280 -136l-89 -75q-80 97 -191 97q-104 0 -168 -69.5t-64 -181.5q0 -109 65 -177.5t167 -68.5z" />
    <glyph glyph-name="ccaron" unicode="&#x10d;" horiz-adv-x="532" 
d="M346 554h-100l-113 147h109l55 -76h2l55 76h110zM427 146l77 -68q-33 -38 -88.5 -62t-122.5 -24q-109 0 -179 70t-70 181q0 112 71 182t182 70q59 0 114 -23.5t91 -67.5l-76 -66q-48 56 -123 56q-65 0 -105 -41.5t-40 -108.5t40 -108.5t105 -41.5q76 0 124 52z" />
    <glyph glyph-name="Dcaron" unicode="&#x10e;" horiz-adv-x="736" 
d="M419 785h-100l-113 147h109l55 -76h2l55 76h110zM313 710q167 0 268 -98.5t101 -257.5t-98.5 -256.5t-267.5 -97.5h-229v710h226zM309 108q111 0 179.5 69.5t68.5 176.5q0 108 -67.5 178t-174.5 70h-107v-494h101z" />
    <glyph glyph-name="dcaron" unicode="&#x10f;" horiz-adv-x="703" 
d="M642 781h108l-58 -198h-80zM436 429v307h111v-736h-107v65h-2q-56 -73 -158 -73q-103 0 -170 69t-67 181q0 110 67.5 181.5t168.5 71.5q98 0 155 -66h2zM297 94q61 0 102 41t41 106q0 66 -40 109.5t-102 43.5q-60 0 -100.5 -42t-40.5 -111q0 -65 39.5 -106t100.5 -41z
" />
    <glyph glyph-name="Dcroat" unicode="&#x110;" horiz-adv-x="736" 
d="M313 710q167 0 268 -98.5t101 -257.5t-98.5 -256.5t-267.5 -97.5h-229v301h-59v103h59v306h226zM309 108q111 0 179.5 69.5t68.5 176.5q0 108 -67.5 178t-174.5 70h-107v-198h121v-103h-121v-193h101z" />
    <glyph glyph-name="dcroat" unicode="&#x111;" horiz-adv-x="609" 
d="M609 638v-76h-62v-562h-107v65h-2q-56 -73 -158 -73q-103 0 -170 69t-67 181q0 110 67.5 181.5t168.5 71.5q98 0 155 -66h2v133h-109v76h109v98h111v-98h62zM297 94q61 0 102 41t41 106q0 66 -40 109.5t-102 43.5q-60 0 -100.5 -42t-40.5 -111q0 -65 39.5 -106t100.5 -41
z" />
    <glyph glyph-name="Emacron" unicode="&#x112;" 
d="M171 815v94h298v-94h-298zM87 0v710h447v-108h-326v-196h263v-108h-263v-190h347v-108h-468z" />
    <glyph glyph-name="emacron" unicode="&#x113;" horiz-adv-x="562" 
d="M440 678v-94h-298v94h298zM519 250q0 -18 -3 -45h-356q11 -52 48 -81.5t91 -29.5q76 0 122 57l78 -67q-71 -92 -206 -92q-108 0 -178.5 69.5t-70.5 182.5q0 111 67.5 181t170.5 70q107 0 172 -68.5t65 -176.5zM288 394q-47 0 -80.5 -26t-45.5 -73h244q-11 46 -41 72.5
t-77 26.5z" />
    <glyph glyph-name="Ebreve" unicode="&#x114;" 
d="M320 782q-63 0 -107 38.5t-49 107.5h88q2 -30 20 -49t48 -19q29 0 47.5 18.5t20.5 49.5h88q-5 -65 -47.5 -105.5t-108.5 -40.5zM87 0v710h447v-108h-326v-196h263v-108h-263v-190h347v-108h-468z" />
    <glyph glyph-name="ebreve" unicode="&#x115;" horiz-adv-x="562" 
d="M291 551q-63 0 -107 38.5t-49 107.5h88q2 -30 20 -49t48 -19q29 0 48 18.5t20 49.5h88q-5 -65 -47.5 -105.5t-108.5 -40.5zM519 250q0 -18 -3 -45h-356q11 -52 48 -81.5t91 -29.5q76 0 122 57l78 -67q-71 -92 -206 -92q-108 0 -178.5 69.5t-70.5 182.5q0 111 67.5 181
t170.5 70q107 0 172 -68.5t65 -176.5zM288 394q-47 0 -80.5 -26t-45.5 -73h244q-11 46 -41 72.5t-77 26.5z" />
    <glyph glyph-name="Edotaccent" unicode="&#x116;" 
d="M320 791q-31 0 -53 22t-22 53q0 30 22 52t53 22t53.5 -22t22.5 -52q0 -31 -22.5 -53t-53.5 -22zM87 0v710h447v-108h-326v-196h263v-108h-263v-190h347v-108h-468z" />
    <glyph glyph-name="edotaccent" unicode="&#x117;" horiz-adv-x="562" 
d="M291 560q-31 0 -53 22t-22 53q0 30 22 52t53 22t53.5 -22t22.5 -52q0 -31 -22.5 -53t-53.5 -22zM519 250q0 -18 -3 -45h-356q11 -52 48 -81.5t91 -29.5q76 0 122 57l78 -67q-71 -92 -206 -92q-108 0 -178.5 69.5t-70.5 182.5q0 111 67.5 181t170.5 70q107 0 172 -68.5
t65 -176.5zM288 394q-47 0 -80.5 -26t-45.5 -73h244q-11 46 -41 72.5t-77 26.5z" />
    <glyph glyph-name="Eogonek" unicode="&#x118;" 
d="M542 0q-36 -8 -57.5 -29.5t-21.5 -45.5q0 -41 43 -41q23 0 41 8l7 -68q-28 -12 -72 -12q-49 0 -78.5 24t-29.5 64q0 24 17 51.5t47 48.5h-351v710h447v-108h-326v-196h263v-108h-263v-190h347v-108h-13z" />
    <glyph glyph-name="eogonek" unicode="&#x119;" horiz-adv-x="562" 
d="M519 250q0 -18 -3 -45h-356q11 -52 48 -81.5t91 -29.5q76 0 122 57l78 -67q-45 -59 -119 -80q-86 -30 -86 -74q0 -16 11.5 -26.5t31.5 -10.5q22 0 41 7l7 -71q-27 -13 -72 -13q-55 0 -86 24.5t-31 64.5q0 47 51 89v2q-90 15 -146.5 81.5t-56.5 166.5q0 111 67.5 181
t170.5 70q107 0 172 -68.5t65 -176.5zM288 394q-47 0 -80.5 -26t-45.5 -73h244q-11 46 -41 72.5t-77 26.5z" />
    <glyph glyph-name="Ecaron" unicode="&#x11a;" 
d="M367 785h-100l-113 147h109l55 -76h2l55 76h110zM208 108h347v-108h-468v710h447v-108h-326v-196h263v-108h-263v-190z" />
    <glyph glyph-name="ecaron" unicode="&#x11b;" horiz-adv-x="562" 
d="M338 554h-100l-113 147h109l55 -76h2l55 76h110zM519 250q0 -18 -3 -45h-356q11 -52 48 -81.5t91 -29.5q76 0 122 57l78 -67q-71 -92 -206 -92q-108 0 -178.5 69.5t-70.5 182.5q0 111 67.5 181t170.5 70q107 0 172 -68.5t65 -176.5zM288 394q-47 0 -80.5 -26t-45.5 -73
h244q-11 46 -41 72.5t-77 26.5z" />
    <glyph glyph-name="Gcircumflex" unicode="&#x11c;" horiz-adv-x="759" 
d="M404 860l-55 -75h-109l113 147h100l118 -147h-110l-55 75h-2zM397 379h294v-296q-49 -41 -123 -65t-155 -24q-157 0 -257.5 97.5t-100.5 262.5q0 160 96.5 262t257.5 102q77 0 150 -29.5t127 -87.5l-85 -74q-79 77 -193 77q-98 0 -162.5 -68.5t-64.5 -181.5
q0 -108 63.5 -179t168.5 -71q87 0 158 47v120h-174v108z" />
    <glyph glyph-name="gcircumflex" unicode="&#x11d;" 
d="M291 629l-55 -75h-109l113 147h100l118 -147h-110l-55 75h-2zM428 488h112v-438q0 -118 -60 -186.5t-189 -68.5q-114 0 -199 51l27 98q47 -25 82.5 -36.5t83.5 -11.5q69 0 107 34.5t38 85.5v52h-1q-58 -60 -149 -60q-103 0 -170.5 67t-67.5 174t65.5 177t166.5 70
q92 0 152 -60h2v52zM295 111q61 0 99.5 40.5t38.5 102.5q0 61 -39.5 100t-98.5 39q-62 0 -100.5 -39.5t-38.5 -101.5q0 -64 39.5 -102.5t99.5 -38.5z" />
    <glyph glyph-name="Gbreve" unicode="&#x11e;" horiz-adv-x="759" 
d="M406 782q-63 0 -107 38.5t-49 107.5h88q2 -30 20 -49t48 -19q29 0 47.5 18.5t20.5 49.5h88q-5 -65 -47.5 -105.5t-108.5 -40.5zM413 -6q-157 0 -257.5 97.5t-100.5 262.5q0 160 96.5 262t257.5 102q77 0 150 -29.5t127 -87.5l-85 -74q-79 77 -193 77q-98 0 -162.5 -68.5
t-64.5 -181.5q0 -108 63.5 -179t168.5 -71q87 0 158 47v120h-174v108h294v-296q-49 -41 -123 -65t-155 -24z" />
    <glyph glyph-name="gbreve" unicode="&#x11f;" 
d="M293 551q-63 0 -107 38.5t-49 107.5h88q2 -30 20 -49t48 -19q29 0 48 18.5t20 49.5h88q-5 -65 -47.5 -105.5t-108.5 -40.5zM428 488h112v-438q0 -118 -60 -186.5t-189 -68.5q-114 0 -199 51l27 98q47 -25 82.5 -36.5t83.5 -11.5q69 0 107 34.5t38 85.5v52h-1
q-58 -60 -149 -60q-103 0 -170.5 67t-67.5 174t65.5 177t166.5 70q92 0 152 -60h2v52zM295 111q61 0 99.5 40.5t38.5 102.5q0 61 -39.5 100t-98.5 39q-62 0 -100.5 -39.5t-38.5 -101.5q0 -64 39.5 -102.5t99.5 -38.5z" />
    <glyph glyph-name="Gdotaccent" unicode="&#x120;" horiz-adv-x="759" 
d="M406 791q-31 0 -53 22t-22 53q0 30 22 52t53 22t53.5 -22t22.5 -52q0 -31 -22.5 -53t-53.5 -22zM413 -6q-157 0 -257.5 97.5t-100.5 262.5q0 160 96.5 262t257.5 102q77 0 150 -29.5t127 -87.5l-85 -74q-79 77 -193 77q-98 0 -162.5 -68.5t-64.5 -181.5q0 -108 63.5 -179
t168.5 -71q87 0 158 47v120h-174v108h294v-296q-49 -41 -123 -65t-155 -24z" />
    <glyph glyph-name="gdotaccent" unicode="&#x121;" 
d="M293 560q-31 0 -53 22t-22 53q0 30 22 52t53 22t53.5 -22t22.5 -52q0 -31 -22.5 -53t-53.5 -22zM428 488h112v-438q0 -118 -60 -186.5t-189 -68.5q-114 0 -199 51l27 98q47 -25 82.5 -36.5t83.5 -11.5q69 0 107 34.5t38 85.5v52h-1q-58 -60 -149 -60q-103 0 -170.5 67
t-67.5 174t65.5 177t166.5 70q92 0 152 -60h2v52zM295 111q61 0 99.5 40.5t38.5 102.5q0 61 -39.5 100t-98.5 39q-62 0 -100.5 -39.5t-38.5 -101.5q0 -64 39.5 -102.5t99.5 -38.5z" />
    <glyph glyph-name="Gcommaaccent" unicode="&#x122;" horiz-adv-x="759" 
d="M413 -6q-157 0 -257.5 97.5t-100.5 262.5q0 160 96.5 262t257.5 102q77 0 150 -29.5t127 -87.5l-85 -74q-79 77 -193 77q-98 0 -162.5 -68.5t-64.5 -181.5q0 -108 63.5 -179t168.5 -71q87 0 158 47v120h-174v108h294v-296q-49 -41 -123 -65t-155 -24zM336 -219l-26 65
q30 11 42.5 24.5t12.5 37.5q0 14 -6 39h102q4 -20 4 -47q0 -54 -36.5 -83.5t-92.5 -35.5z" />
    <glyph glyph-name="gcommaaccent" unicode="&#x123;" 
d="M348 559h-102q-4 20 -4 47q0 54 36.5 83.5t92.5 35.5l26 -65q-30 -11 -42.5 -24.5t-12.5 -37.5q0 -14 6 -39zM428 488h112v-438q0 -118 -60 -186.5t-189 -68.5q-114 0 -199 51l27 98q47 -25 82.5 -36.5t83.5 -11.5q69 0 107 34.5t38 85.5v52h-1q-58 -60 -149 -60
q-103 0 -170.5 67t-67.5 174t65.5 177t166.5 70q92 0 152 -60h2v52zM295 111q61 0 99.5 40.5t38.5 102.5q0 61 -39.5 100t-98.5 39q-62 0 -100.5 -39.5t-38.5 -101.5q0 -64 39.5 -102.5t99.5 -38.5z" />
    <glyph glyph-name="Hcircumflex" unicode="&#x124;" horiz-adv-x="736" 
d="M369 860l-55 -75h-109l113 147h100l118 -147h-110l-55 75h-2zM529 710h120v-710h-120v285h-321v-285h-121v710h121v-317h321v317z" />
    <glyph glyph-name="hcircumflex" unicode="&#x125;" horiz-adv-x="598" 
d="M239 870l-55 -75h-109l113 147h100l118 -147h-110l-55 75h-2zM352 495q85 0 133.5 -49t48.5 -154v-292h-112v263q0 70 -26.5 100.5t-79.5 30.5q-62 0 -96.5 -37.5t-34.5 -108.5v-248h-112v736h112v-310h1q62 69 166 69z" />
    <glyph glyph-name="Hbar" unicode="&#x126;" horiz-adv-x="736" 
d="M705 599v-83h-56v-516h-120v285h-321v-285h-121v516h-50v83h50v111h121v-111h321v111h120v-111h56zM529 393v123h-321v-123h321z" />
    <glyph glyph-name="hbar" unicode="&#x127;" horiz-adv-x="598" 
d="M352 495q85 0 133.5 -49t48.5 -154v-292h-112v263q0 70 -26.5 100.5t-79.5 30.5q-62 0 -96.5 -37.5t-34.5 -108.5v-248h-112v562h-67v76h67v98h112v-98h103v-76h-103v-136h1q62 69 166 69z" />
    <glyph glyph-name="Itilde" unicode="&#x128;" horiz-adv-x="304" 
d="M230 784q-37 0 -88 32q-35 22 -56 22q-37 0 -58 -52l-68 31q34 110 114 110q40 0 84 -28q40 -25 58 -25q36 0 57 52l68 -23q-15 -56 -44 -87.5t-67 -31.5zM91 0v710h121v-710h-121z" />
    <glyph glyph-name="itilde" unicode="&#x129;" horiz-adv-x="272" 
d="M216 553q-37 0 -88 32q-3 2 -10 6.5t-10 6.5t-8.5 4.5t-11 3.5t-11.5 1q-27 0 -48 -52l-68 31q15 50 42.5 80t61.5 30q6 0 12 -0.5t11.5 -1.5t9.5 -2t9 -3t7.5 -3.5t8 -4.5t7 -4t7.5 -4.5t7 -4.5q40 -25 58 -25q36 0 57 52l68 -23q-15 -56 -44 -87.5t-67 -31.5zM80 0v488
h112v-488h-112z" />
    <glyph glyph-name="Imacron" unicode="&#x12a;" horiz-adv-x="304" 
d="M1 815v94h298v-94h-298zM91 0v710h121v-710h-121z" />
    <glyph glyph-name="imacron" unicode="&#x12b;" horiz-adv-x="272" 
d="M-13 584v94h298v-94h-298zM80 0v488h112v-488h-112z" />
    <glyph glyph-name="Ibreve" unicode="&#x12c;" horiz-adv-x="304" 
d="M150 782q-63 0 -107 38.5t-49 107.5h88q2 -30 20 -49t48 -19q29 0 47.5 18.5t20.5 49.5h88q-5 -65 -47.5 -105.5t-108.5 -40.5zM91 0v710h121v-710h-121z" />
    <glyph glyph-name="ibreve" unicode="&#x12d;" horiz-adv-x="272" 
d="M136 551q-58 0 -97.5 38.5t-44.5 107.5h88q2 -30 16 -49t38 -19q22 0 36.5 18.5t16.5 49.5h88q-5 -65 -42 -105.5t-99 -40.5zM80 0v488h112v-488h-112z" />
    <glyph glyph-name="Iogonek" unicode="&#x12e;" horiz-adv-x="304" 
d="M193 0q-36 -8 -57.5 -29.5t-21.5 -45.5q0 -41 43 -41q23 0 41 8l7 -68q-28 -12 -72 -12q-49 0 -78.5 24t-29.5 64q0 56 66 101v709h121v-710h-19z" />
    <glyph glyph-name="iogonek" unicode="&#x12f;" horiz-adv-x="272" 
d="M136 560q-31 0 -53 22t-22 53q0 30 22 52t53 22t53.5 -22t22.5 -52q0 -31 -22.5 -53t-53.5 -22zM145 -116q23 0 41 8l7 -68q-29 -12 -72 -12q-49 0 -78.5 24t-29.5 64q0 25 17.5 53t49.5 49v486h112v-488h-11q-36 -8 -57.5 -29.5t-21.5 -45.5q0 -41 43 -41z" />
    <glyph glyph-name="Idotaccent" unicode="&#x130;" horiz-adv-x="304" 
d="M150 791q-31 0 -53 22t-22 53q0 30 22 52t53 22t53.5 -22t22.5 -52q0 -31 -22.5 -53t-53.5 -22zM91 0v710h121v-710h-121z" />
    <glyph glyph-name="dotlessi" unicode="&#x131;" horiz-adv-x="272" 
d="M80 0v488h112v-488h-112z" />
    <glyph glyph-name="IJ" unicode="&#x132;" horiz-adv-x="811" 
d="M91 0v710h121v-710h-121zM523 -6q-53 0 -104 23t-84 66l68 88q22 -26 53 -44.5t62 -18.5q96 0 96 136v466h121v-467q0 -122 -50 -185.5t-162 -63.5z" />
    <glyph glyph-name="ij" unicode="&#x133;" horiz-adv-x="521" 
d="M136 560q-31 0 -53 22t-22 53q0 30 22 52t53 22t53.5 -22t22.5 -52q0 -31 -22.5 -53t-53.5 -22zM397 560q-31 0 -53 22t-22 53q0 30 22 52t53 22t53.5 -22t22.5 -52q0 -31 -22.5 -53t-53.5 -22zM80 0v488h112v-488h-112zM318 -206q-51 0 -95 18l19 97q22 -14 44 -14
q25 0 40.5 18.5t15.5 53.5v521h112v-521q0 -82 -38 -127.5t-98 -45.5z" />
    <glyph glyph-name="Jcircumflex" unicode="&#x134;" horiz-adv-x="507" 
d="M368 860l-55 -75h-109l113 147h100l118 -147h-110l-55 75h-2zM310 244v466h121v-467q0 -122 -50 -185.5t-162 -63.5q-53 0 -104 23t-84 66l68 88q22 -26 53 -44.5t62 -18.5q96 0 96 136z" />
    <glyph glyph-name="jcircumflex" unicode="&#x135;" horiz-adv-x="249" 
d="M123 629l-55 -75h-109l113 147h100l118 -147h-110l-55 75h-2zM70 -33v521h112v-521q0 -82 -38 -127.5t-98 -45.5q-51 0 -95 18l19 97q22 -14 44 -14q25 0 40.5 18.5t15.5 53.5z" />
    <glyph glyph-name="Kcommaaccent" unicode="&#x136;" horiz-adv-x="664" 
d="M369 393l275 -393h-150l-204 296h-2l-80 -95v-201h-121v710h121v-340h2l272 340h154zM288 -53h102q4 -20 4 -47q0 -54 -36.5 -83.5t-92.5 -35.5l-26 65q30 11 42.5 24.5t12.5 37.5q0 14 -6 39z" />
    <glyph glyph-name="kcommaaccent" unicode="&#x137;" horiz-adv-x="535" 
d="M342 291l179 -291h-126l-127 205h-2l-81 -90v-115h-112v736h112v-471l200 223h133zM233 -53h102q4 -20 4 -47q0 -54 -36.5 -83.5t-92.5 -35.5l-26 65q30 11 42.5 24.5t12.5 37.5q0 14 -6 39z" />
    <glyph glyph-name="kgreenlandic" unicode="&#x138;" horiz-adv-x="536" 
d="M268 205h-2l-81 -90v-115h-112v488h112v-224l200 224h134l-176 -197l178 -291h-126z" />
    <glyph glyph-name="Lacute" unicode="&#x139;" horiz-adv-x="573" 
d="M194 787l115 144l123 1l-124 -145h-114zM87 0v710h121v-602h329v-108h-450z" />
    <glyph glyph-name="lacute" unicode="&#x13a;" horiz-adv-x="272" 
d="M80 800l115 144l123 1l-124 -145h-114zM80 0v736h112v-736h-112z" />
    <glyph glyph-name="Lcommaaccent" unicode="&#x13b;" horiz-adv-x="573" 
d="M87 0v710h121v-602h329v-108h-450zM230 -219l-26 65q30 11 42.5 24.5t12.5 37.5q0 14 -6 39h102q4 -20 4 -47q0 -54 -36.5 -83.5t-92.5 -35.5z" />
    <glyph glyph-name="lcommaaccent" unicode="&#x13c;" horiz-adv-x="272" 
d="M80 0v736h112v-736h-112zM59 -219l-26 65q30 11 42.5 24.5t12.5 37.5q0 14 -6 39h102q4 -20 4 -47q0 -54 -36.5 -83.5t-92.5 -35.5z" />
    <glyph glyph-name="Lcaron" unicode="&#x13d;" horiz-adv-x="573" 
d="M320 583l31 198h107l-58 -198h-80zM87 0v710h121v-602h329v-108h-450z" />
    <glyph glyph-name="lcaron" unicode="&#x13e;" horiz-adv-x="346" 
d="M256 583l30 198h108l-58 -198h-80zM80 0v736h112v-736h-112z" />
    <glyph glyph-name="Ldot" unicode="&#x13f;" horiz-adv-x="573" 
d="M87 0v710h121v-602h329v-108h-450zM438 265q-32 0 -54 21.5t-22 52.5t22.5 53t53.5 22t53 -22t22 -53t-22 -52.5t-53 -21.5z" />
    <glyph glyph-name="ldot" unicode="&#x140;" horiz-adv-x="453" 
d="M80 0v736h112v-736h-112zM360 171q-32 0 -54 21.5t-22 52.5t22.5 53t53.5 22t53 -22t22 -53t-22 -52.5t-53 -21.5z" />
    <glyph glyph-name="Lslash" unicode="&#x141;" horiz-adv-x="579" 
d="M214 108h329v-108h-450v273l-72 -34v98l72 34v339h121v-281l83 40v-100l-83 -39v-222z" />
    <glyph glyph-name="lslash" unicode="&#x142;" horiz-adv-x="295" 
d="M266 431v-104l-58 -27v-300h-112v246l-62 -29v104l62 29v386h112v-332z" />
    <glyph glyph-name="Nacute" unicode="&#x143;" horiz-adv-x="763" 
d="M519 932l-124 -145h-114l115 144zM556 710h120v-710h-123l-345 503v-503h-121v710h120l347 -510h2v510z" />
    <glyph glyph-name="nacute" unicode="&#x144;" horiz-adv-x="593" 
d="M449 701l-124 -145h-114l115 144zM350 495q84 0 131.5 -51t47.5 -157v-287h-112v258q0 74 -26.5 105t-79.5 31q-58 0 -92 -39t-34 -110v-245h-112v488h112v-68h1q63 75 164 75z" />
    <glyph glyph-name="Ncommaaccent" unicode="&#x145;" horiz-adv-x="763" 
d="M556 710h120v-710h-123l-345 503v-503h-121v710h120l347 -510h2v510zM326 -53h102q4 -20 4 -47q0 -54 -36.5 -83.5t-92.5 -35.5l-26 65q30 11 42.5 24.5t12.5 37.5q0 14 -6 39z" />
    <glyph glyph-name="ncommaaccent" unicode="&#x146;" horiz-adv-x="593" 
d="M350 495q84 0 131.5 -51t47.5 -157v-287h-112v258q0 74 -26.5 105t-79.5 31q-58 0 -92 -39t-34 -110v-245h-112v488h112v-68h1q63 75 164 75zM241 -53h102q4 -20 4 -47q0 -54 -36.5 -83.5t-92.5 -35.5l-26 65q30 11 42.5 24.5t12.5 37.5q0 14 -6 39z" />
    <glyph glyph-name="Ncaron" unicode="&#x147;" horiz-adv-x="763" 
d="M428 785h-100l-113 147h109l55 -76h2l55 76h110zM556 710h120v-710h-123l-345 503v-503h-121v710h120l347 -510h2v510z" />
    <glyph glyph-name="ncaron" unicode="&#x148;" horiz-adv-x="593" 
d="M343 554h-100l-113 147h109l55 -76h2l55 76h110zM350 495q84 0 131.5 -51t47.5 -157v-287h-112v258q0 74 -26.5 105t-79.5 31q-58 0 -92 -39t-34 -110v-245h-112v488h112v-68h1q63 75 164 75z" />
    <glyph glyph-name="napostrophe" unicode="&#x149;" horiz-adv-x="676" 
d="M-9 502l30 208h108l-58 -208h-80zM433 495q84 0 131.5 -51t47.5 -157v-287h-112v258q0 74 -26.5 105t-79.5 31q-58 0 -92 -39t-34 -110v-245h-112v488h112v-68h1q63 75 164 75z" />
    <glyph glyph-name="Eng" unicode="&#x14a;" horiz-adv-x="764" 
d="M556 710h121v-743q0 -83 -39.5 -128t-105.5 -45q-49 0 -95 18l19 92q24 -14 44 -14q24 0 40 20t16 52v36l-347 505h-1v-503h-121v710h118l350 -512h1v512z" />
    <glyph glyph-name="eng" unicode="&#x14b;" horiz-adv-x="574" 
d="M341 495q168 0 168 -205v-323q0 -82 -38 -127.5t-98 -45.5q-51 0 -95 18l19 92q25 -14 44 -14q24 0 40 20t16 52v295q0 76 -21 106.5t-74 30.5q-49 0 -83 -41t-34 -110v-243h-112v488h112v-66h1q30 34 73 53.5t82 19.5z" />
    <glyph glyph-name="Omacron" unicode="&#x14c;" horiz-adv-x="827" 
d="M266 815v94h298v-94h-298zM414 -8q-159 0 -259 102.5t-100 260.5t100 260.5t259 102.5q155 0 256.5 -101t101.5 -262t-101.5 -262t-256.5 -101zM414 105q99 0 165.5 71t66.5 179q0 109 -66.5 179.5t-165.5 70.5q-103 0 -168.5 -72t-65.5 -178t65.5 -178t168.5 -72z" />
    <glyph glyph-name="omacron" unicode="&#x14d;" horiz-adv-x="600" 
d="M151 584v94h298v-94h-298zM300 -8q-114 0 -185 71t-71 180t71 180.5t185 71.5q113 0 184.5 -70t71.5 -182q0 -111 -71.5 -181t-184.5 -70zM300 94q60 0 101 42t41 107q0 67 -40.5 109t-101.5 42q-63 0 -102.5 -43t-39.5 -108q0 -63 40 -106t102 -43z" />
    <glyph glyph-name="Obreve" unicode="&#x14e;" horiz-adv-x="827" 
d="M415 782q-63 0 -107 38.5t-49 107.5h88q2 -30 20 -49t48 -19q29 0 48 18.5t20 49.5h88q-5 -65 -47.5 -105.5t-108.5 -40.5zM414 -8q-159 0 -259 102.5t-100 260.5t100 260.5t259 102.5q155 0 256.5 -101t101.5 -262t-101.5 -262t-256.5 -101zM414 105q99 0 165.5 71
t66.5 179q0 109 -66.5 179.5t-165.5 70.5q-103 0 -168.5 -72t-65.5 -178t65.5 -178t168.5 -72z" />
    <glyph glyph-name="obreve" unicode="&#x14f;" horiz-adv-x="600" 
d="M300 551q-63 0 -107 38.5t-49 107.5h88q2 -30 20 -49t48 -19q29 0 47.5 18.5t20.5 49.5h88q-5 -65 -47.5 -105.5t-108.5 -40.5zM300 -8q-114 0 -185 71t-71 180t71 180.5t185 71.5q113 0 184.5 -70t71.5 -182q0 -111 -71.5 -181t-184.5 -70zM300 94q60 0 101 42t41 107
q0 67 -40.5 109t-101.5 42q-63 0 -102.5 -43t-39.5 -108q0 -63 40 -106t102 -43z" />
    <glyph glyph-name="Ohungarumlaut" unicode="&#x150;" horiz-adv-x="827" 
d="M267 787l115 144l114 1l-124 -145h-105zM458 787l114 144l114 1l-124 -145h-104zM414 -8q-159 0 -259 102.5t-100 260.5t100 260.5t259 102.5q155 0 256.5 -101t101.5 -262t-101.5 -262t-256.5 -101zM414 105q99 0 165.5 71t66.5 179q0 109 -66.5 179.5t-165.5 70.5
q-103 0 -168.5 -72t-65.5 -178t65.5 -178t168.5 -72z" />
    <glyph glyph-name="ohungarumlaut" unicode="&#x151;" horiz-adv-x="600" 
d="M141 556l115 144l114 1l-124 -145h-105zM332 556l114 144l114 1l-124 -145h-104zM300 -8q-114 0 -185 71t-71 180t71 180.5t185 71.5q113 0 184.5 -70t71.5 -182q0 -111 -71.5 -181t-184.5 -70zM300 94q60 0 101 42t41 107q0 67 -40.5 109t-101.5 42q-63 0 -102.5 -43
t-39.5 -108q0 -63 40 -106t102 -43z" />
    <glyph glyph-name="OE" unicode="&#x152;" horiz-adv-x="967" 
d="M565 108h349v-108h-498q-159 0 -260 101.5t-101 254.5t101 254t260 100h478v-108h-329v-197h269v-108h-269v-189zM416 112l34 1v485h-34q-100 1 -168 -68.5t-68 -173.5t68 -174.5t168 -69.5z" />
    <glyph glyph-name="oe" unicode="&#x153;" horiz-adv-x="802" 
d="M774 250q0 -15 -3 -45h-298q8 -51 36.5 -81t72.5 -30q27 0 52.5 16t41.5 41l78 -67q-28 -41 -76.5 -66.5t-101.5 -25.5q-106 0 -166 81h-2q-60 -81 -160 -81q-98 0 -158 71t-60 180q0 108 63.5 180t158.5 72q97 0 156 -81h2q60 81 163 81q88 0 144.5 -69t56.5 -176z
M247 94q46 0 77.5 42t31.5 107q0 67 -29 109t-75 42q-45 0 -76.5 -43.5t-31.5 -107.5t28.5 -106.5t74.5 -42.5zM570 394q-37 0 -61.5 -25t-33.5 -70h188q-10 44 -34 69.5t-59 25.5z" />
    <glyph glyph-name="Racute" unicode="&#x154;" horiz-adv-x="659" 
d="M466 932l-124 -145h-114l115 144zM618 0h-145l-170 253h-95v-253h-121v710h262q122 0 182.5 -63t60.5 -167q0 -170 -156 -214v-3zM208 602v-240h115q70 0 107 32.5t37 87.5q0 57 -35.5 88.5t-100.5 31.5h-123z" />
    <glyph glyph-name="racute" unicode="&#x155;" horiz-adv-x="372" 
d="M360 701l-124 -145h-114l115 144zM186 414q59 81 152 81h14v-125q-26 2 -34 2q-62 0 -97.5 -39.5t-35.5 -101.5v-231h-112v488h112v-74h1z" />
    <glyph glyph-name="Rcommaaccent" unicode="&#x156;" horiz-adv-x="659" 
d="M436 263l182 -263h-145l-170 253h-95v-253h-121v710h262q122 0 182.5 -63t60.5 -167q0 -170 -156 -214v-3zM208 602v-240h115q70 0 107 32.5t37 87.5q0 57 -35.5 88.5t-100.5 31.5h-123zM273 -53h102q4 -20 4 -47q0 -54 -36.5 -83.5t-92.5 -35.5l-26 65q30 11 42.5 24.5
t12.5 37.5q0 14 -6 39z" />
    <glyph glyph-name="rcommaaccent" unicode="&#x157;" horiz-adv-x="372" 
d="M338 495h14v-125q-26 2 -34 2q-62 0 -97.5 -39.5t-35.5 -101.5v-231h-112v488h112v-74h1q59 81 152 81zM77 -53h102q4 -20 4 -47q0 -54 -36.5 -83.5t-92.5 -35.5l-26 65q30 11 42.5 24.5t12.5 37.5q0 14 -6 39z" />
    <glyph glyph-name="Rcaron" unicode="&#x158;" horiz-adv-x="659" 
d="M375 785h-100l-113 147h109l55 -76h2l55 76h110zM618 0h-145l-170 253h-95v-253h-121v710h262q122 0 182.5 -63t60.5 -167q0 -170 -156 -214v-3zM208 602v-240h115q70 0 107 32.5t37 87.5q0 57 -35.5 88.5t-100.5 31.5h-123z" />
    <glyph glyph-name="rcaron" unicode="&#x159;" horiz-adv-x="372" 
d="M269 554h-100l-113 147h109l55 -76h2l55 76h110zM186 414q59 81 152 81h14v-125q-26 2 -34 2q-62 0 -97.5 -39.5t-35.5 -101.5v-231h-112v488h112v-74h1z" />
    <glyph glyph-name="Sacute" unicode="&#x15a;" horiz-adv-x="591" 
d="M231 787l115 144l123 1l-124 -145h-114zM299 -8q-149 0 -257 112l76 93q37 -45 86 -69t96 -24q57 0 87.5 23t30.5 63q0 43 -30 65t-107 49q-49 17 -80.5 32.5t-66 40.5t-51.5 60.5t-17 82.5q0 83 66 140.5t159 57.5q123 1 235 -87l-72 -95q-88 73 -163 73q-43 0 -71 -22
t-29 -61q0 -19 7 -32.5t28.5 -26.5t39 -20.5t58.5 -23.5q110 -43 145 -67q75 -53 75 -151q0 -102 -74.5 -157.5t-170.5 -55.5z" />
    <glyph glyph-name="sacute" unicode="&#x15b;" horiz-adv-x="449" 
d="M155 556l115 144l123 1l-124 -145h-114zM229 -8q-117 0 -197 71l56 84q58 -57 141 -57q32 0 50 13t18 35q0 17 -20.5 28.5t-75.5 30.5q-72 25 -110.5 60t-38.5 100q0 60 48.5 99t123.5 39q97 0 172 -61l-56 -88q-55 52 -122 52q-20 0 -36.5 -10.5t-16.5 -31.5
q0 -30 77 -59q95 -37 119 -54q50 -35 50 -103q0 -65 -46.5 -106.5t-135.5 -41.5z" />
    <glyph glyph-name="Scircumflex" unicode="&#x15c;" horiz-adv-x="591" 
d="M291 860l-55 -75h-109l113 147h100l118 -147h-110l-55 75h-2zM324 423q110 -43 145 -67q75 -53 75 -151q0 -102 -74.5 -157.5t-170.5 -55.5q-149 0 -257 112l76 93q37 -45 86 -69t96 -24q57 0 87.5 23t30.5 63q0 43 -30 65t-107 49q-49 17 -80.5 32.5t-66 40.5
t-51.5 60.5t-17 82.5q0 83 66 140.5t159 57.5q123 1 235 -87l-72 -95q-88 73 -163 73q-43 0 -71 -22t-29 -61q0 -19 7 -32.5t28.5 -26.5t39 -20.5t58.5 -23.5z" />
    <glyph glyph-name="scircumflex" unicode="&#x15d;" horiz-adv-x="449" 
d="M229 629l-55 -75h-109l113 147h100l118 -147h-110l-55 75h-2zM242 297q95 -37 119 -54q50 -35 50 -103q0 -65 -46.5 -106.5t-135.5 -41.5q-117 0 -197 71l56 84q58 -57 141 -57q32 0 50 13t18 35q0 17 -20.5 28.5t-75.5 30.5q-72 25 -110.5 60t-38.5 100q0 60 48.5 99
t123.5 39q97 0 172 -61l-56 -88q-55 52 -122 52q-20 0 -36.5 -10.5t-16.5 -31.5q0 -30 77 -59z" />
    <glyph glyph-name="Scedilla" unicode="&#x15e;" horiz-adv-x="591" 
d="M313 -8l-11 -22l1 -2q92 -5 92 -80q0 -35 -29.5 -56.5t-89.5 -21.5q-29 0 -59 6v55q21 -7 50 -7q20 0 35.5 7.5t15.5 22.5q0 14 -22.5 24t-61.5 10v36l14 32q-118 16 -206 108l76 93q37 -45 86 -69t96 -24q57 0 87.5 23t30.5 63q0 43 -30 65t-107 49q-49 17 -80.5 32.5
t-66 40.5t-51.5 60.5t-17 82.5q0 83 66 140.5t159 57.5q123 1 235 -87l-72 -95q-88 73 -163 73q-43 0 -71 -22t-29 -61q0 -19 7 -32.5t28.5 -26.5t39 -20.5t58.5 -23.5q110 -43 145 -67q75 -53 75 -151t-69 -153t-162 -60z" />
    <glyph glyph-name="scedilla" unicode="&#x15f;" horiz-adv-x="449" 
d="M231 -8l-11 -22l1 -2q92 -5 92 -80q0 -35 -29.5 -56.5t-89.5 -21.5q-29 0 -59 6v55q21 -7 50 -7q20 0 35.5 7.5t15.5 22.5q0 14 -22.5 24t-61.5 10v36l15 34q-79 15 -135 65l56 84q58 -57 141 -57q32 0 50 13t18 35q0 17 -20.5 28.5t-75.5 30.5q-72 25 -110.5 60
t-38.5 100q0 60 48.5 99t123.5 39q97 0 172 -61l-56 -88q-55 52 -122 52q-20 0 -36.5 -10.5t-16.5 -31.5q0 -30 77 -59q95 -37 119 -54q50 -35 50 -103q0 -65 -46 -106t-134 -42z" />
    <glyph glyph-name="Scaron" unicode="&#x160;" horiz-adv-x="591" 
d="M340 785h-100l-113 147h109l55 -76h2l55 76h110zM324 423q110 -43 145 -67q75 -53 75 -151q0 -102 -74.5 -157.5t-170.5 -55.5q-149 0 -257 112l76 93q37 -45 86 -69t96 -24q57 0 87.5 23t30.5 63q0 43 -30 65t-107 49q-49 17 -80.5 32.5t-66 40.5t-51.5 60.5t-17 82.5
q0 83 66 140.5t159 57.5q123 1 235 -87l-72 -95q-88 73 -163 73q-43 0 -71 -22t-29 -61q0 -19 7 -32.5t28.5 -26.5t39 -20.5t58.5 -23.5z" />
    <glyph glyph-name="scaron" unicode="&#x161;" horiz-adv-x="449" 
d="M278 554h-100l-113 147h109l55 -76h2l55 76h110zM242 297q95 -37 119 -54q50 -35 50 -103q0 -65 -46.5 -106.5t-135.5 -41.5q-117 0 -197 71l56 84q58 -57 141 -57q32 0 50 13t18 35q0 17 -20.5 28.5t-75.5 30.5q-72 25 -110.5 60t-38.5 100q0 60 48.5 99t123.5 39
q97 0 172 -61l-56 -88q-55 52 -122 52q-20 0 -36.5 -10.5t-16.5 -31.5q0 -30 77 -59z" />
    <glyph glyph-name="uni0162" unicode="&#x162;" horiz-adv-x="589" 
d="M300 0l-15 -30l1 -2q92 -5 92 -80q0 -35 -29.5 -56.5t-89.5 -21.5q-29 0 -59 6v55q21 -7 50 -7q20 0 35.5 7.5t15.5 22.5q0 14 -22.5 24t-61.5 10v36l16 36v602h-201v108h526v-108h-204v-602h-54z" />
    <glyph glyph-name="uni0163" unicode="&#x163;" horiz-adv-x="365" 
d="M209 -32q92 -5 92 -80q0 -35 -29.5 -56.5t-89.5 -21.5q-29 0 -59 6v55q21 -7 50 -7q20 0 35.5 7.5t15.5 22.5q0 14 -22.5 24t-61.5 10v36l18 39q-76 33 -76 151v239h-60v95h60v162l112 12v-174h143v-95h-143v-228q0 -37 11 -52.5t36 -15.5q33 0 72 21l29 -97
q-53 -29 -123 -29l-11 -22z" />
    <glyph glyph-name="Tcaron" unicode="&#x164;" horiz-adv-x="589" 
d="M340 785h-100l-113 147h109l55 -76h2l55 76h110zM32 710h526v-108h-204v-602h-121v602h-201v108z" />
    <glyph glyph-name="tcaron" unicode="&#x165;" horiz-adv-x="365" 
d="M255 583l31 198h108l-59 -198h-80zM218 -8q-64 0 -100 41t-36 121v239h-60v95h60v162l112 12v-174h143v-95h-143v-228q0 -37 11 -52.5t36 -15.5q33 0 72 21l29 -97q-53 -29 -124 -29z" />
    <glyph glyph-name="Tbar" unicode="&#x166;" horiz-adv-x="589" 
d="M558 602h-204v-198h117v-103h-117v-301h-121v301h-114v103h114v198h-201v108h526v-108z" />
    <glyph glyph-name="tbar" unicode="&#x167;" horiz-adv-x="365" 
d="M313 118l29 -97q-53 -29 -124 -29q-64 0 -100 41t-36 121v72h-54v77h54v90h-60v95h60v162l112 12v-174h143v-95h-143v-90h116v-77h-116v-61q0 -37 11 -52.5t36 -15.5q33 0 72 21z" />
    <glyph glyph-name="Utilde" unicode="&#x168;" horiz-adv-x="719" 
d="M439 784q-37 0 -88 32q-35 22 -56 22q-37 0 -58 -52l-68 31q34 110 114 110q40 0 84 -28q40 -25 58 -25q36 0 57 52l68 -23q-15 -56 -44 -87.5t-67 -31.5zM359 -8q-128 0 -205 79.5t-77 220.5v418h120v-409q0 -87 43.5 -141t118.5 -54q73 0 118 52.5t45 142.5v409h121
v-418q0 -139 -76 -219.5t-208 -80.5z" />
    <glyph glyph-name="utilde" unicode="&#x169;" horiz-adv-x="578" 
d="M223 607q-37 0 -58 -52l-68 31q34 110 114 110q40 0 84 -28q40 -25 58 -25q36 0 57 52l68 -23q-15 -56 -44 -87.5t-67 -31.5q-37 0 -88 32q-35 22 -56 22zM397 488h112v-488h-112v64q-60 -72 -151 -72q-183 0 -183 199v297h112v-267q0 -71 22.5 -99t74.5 -28t88.5 42.5
t36.5 117.5v234z" />
    <glyph glyph-name="Umacron" unicode="&#x16a;" horiz-adv-x="719" 
d="M210 815v94h298v-94h-298zM359 -8q-128 0 -205 79.5t-77 220.5v418h120v-409q0 -87 43.5 -141t118.5 -54q73 0 118 52.5t45 142.5v409h121v-418q0 -139 -76 -219.5t-208 -80.5z" />
    <glyph glyph-name="umacron" unicode="&#x16b;" horiz-adv-x="578" 
d="M436 678v-94h-298v94h298zM397 488h112v-488h-112v64q-60 -72 -151 -72q-183 0 -183 199v297h112v-267q0 -71 22.5 -99t74.5 -28t88.5 42.5t36.5 117.5v234z" />
    <glyph glyph-name="Ubreve" unicode="&#x16c;" horiz-adv-x="719" 
d="M359 782q-63 0 -107 38.5t-49 107.5h88q2 -30 20 -49t48 -19q29 0 48 18.5t20 49.5h88q-5 -65 -47.5 -105.5t-108.5 -40.5zM359 -8q-128 0 -205 79.5t-77 220.5v418h120v-409q0 -87 43.5 -141t118.5 -54q73 0 118 52.5t45 142.5v409h121v-418q0 -139 -76 -219.5
t-208 -80.5z" />
    <glyph glyph-name="ubreve" unicode="&#x16d;" horiz-adv-x="578" 
d="M287 551q-63 0 -107 38.5t-49 107.5h88q2 -30 20 -49t48 -19q29 0 48 18.5t20 49.5h88q-5 -65 -47.5 -105.5t-108.5 -40.5zM397 488h112v-488h-112v64q-60 -72 -151 -72q-183 0 -183 199v297h112v-267q0 -71 22.5 -99t74.5 -28t88.5 42.5t36.5 117.5v234z" />
    <glyph glyph-name="Uring" unicode="&#x16e;" horiz-adv-x="719" 
d="M358 761q-44 0 -76 30.5t-32 74.5t31 74.5t77 30.5q45 0 77 -30t32 -75q0 -44 -31 -74.5t-78 -30.5zM358 829q16 0 27.5 11t11.5 27t-11.5 27t-27.5 11t-27 -11.5t-11 -26.5q0 -16 11 -27t27 -11zM359 -8q-128 0 -205 79.5t-77 220.5v418h120v-409q0 -87 43.5 -141
t118.5 -54q73 0 118 52.5t45 142.5v409h121v-418q0 -139 -76 -219.5t-208 -80.5z" />
    <glyph glyph-name="uring" unicode="&#x16f;" horiz-adv-x="578" 
d="M286 530q-44 0 -76 30.5t-32 74.5q0 43 31 74t77 31q45 0 77 -30t32 -75q0 -44 -31 -74.5t-78 -30.5zM286 674q-16 0 -27 -11.5t-11 -26.5q0 -16 11 -27t27 -11t27.5 11t11.5 27t-11.5 27t-27.5 11zM397 488h112v-488h-112v64q-60 -72 -151 -72q-183 0 -183 199v297h112
v-267q0 -71 22.5 -99t74.5 -28t88.5 42.5t36.5 117.5v234z" />
    <glyph glyph-name="Uhungarumlaut" unicode="&#x170;" horiz-adv-x="719" 
d="M207 787l115 144l114 1l-124 -145h-105zM398 787l114 144l114 1l-124 -145h-104zM359 -8q-128 0 -205 79.5t-77 220.5v418h120v-409q0 -87 43.5 -141t118.5 -54q73 0 118 52.5t45 142.5v409h121v-418q0 -139 -76 -219.5t-208 -80.5z" />
    <glyph glyph-name="uhungarumlaut" unicode="&#x171;" horiz-adv-x="578" 
d="M361 701l-124 -145h-105l115 144zM427 556h-104l114 144l114 1zM397 254v234h112v-488h-112v64q-60 -72 -151 -72q-183 0 -183 199v297h112v-267q0 -71 22.5 -99t74.5 -28t88.5 42.5t36.5 117.5z" />
    <glyph glyph-name="Uogonek" unicode="&#x172;" horiz-adv-x="719" 
d="M522 710h121v-418q0 -111 -49.5 -186t-138.5 -101q-39 -11 -62 -31.5t-23 -43.5q0 -41 43 -41q26 0 41 7l6 -67q-27 -13 -71 -13q-50 0 -79 24.5t-29 64.5q0 45 48 87v1q-115 10 -183.5 88.5t-68.5 210.5v418h120v-409q0 -87 43.5 -141t118.5 -54q73 0 118 52.5t45 142.5
v409z" />
    <glyph glyph-name="uogonek" unicode="&#x173;" horiz-adv-x="578" 
d="M497 0q-36 -8 -57.5 -29.5t-21.5 -45.5q0 -41 43 -41q23 0 41 8l7 -68q-29 -12 -72 -12q-49 0 -78.5 24t-29.5 64q0 25 18 53t50 49v62q-60 -72 -151 -72q-183 0 -183 199v297h112v-267q0 -71 22.5 -99t74.5 -28t88.5 42.5t36.5 117.5v234h112v-488h-12z" />
    <glyph glyph-name="Wcircumflex" unicode="&#x174;" horiz-adv-x="1035" 
d="M517 860l-55 -75h-109l113 147h100l118 -147h-110l-55 75h-2zM875 710h128l-225 -710h-113l-145 534h-2l-148 -534h-113l-225 710h129l152 -513h1l140 513h128l139 -514h1z" />
    <glyph glyph-name="wcircumflex" unicode="&#x175;" horiz-adv-x="771" 
d="M383 629l-55 -75h-109l113 147h100l118 -147h-110l-55 75h-2zM634 488h114l-168 -488h-103l-92 307h-1l-92 -307h-101l-168 488h114l105 -321h2l94 321h94l95 -322h2z" />
    <glyph glyph-name="Ycircumflex" unicode="&#x176;" horiz-adv-x="625" 
d="M312 860l-55 -75h-109l113 147h100l118 -147h-110l-55 75h-2zM471 710h140l-239 -396v-314h-121v314l-237 396h138l159 -275h2z" />
    <glyph glyph-name="ycircumflex" unicode="&#x177;" horiz-adv-x="535" 
d="M266 629l-55 -75h-109l113 147h100l118 -147h-110l-55 75h-2zM398 488h117l-268 -686h-118l88 226l-198 460h118l135 -330z" />
    <glyph glyph-name="Ydieresis" unicode="&#x178;" horiz-adv-x="625" 
d="M215 791q-32 0 -54 22t-22 53q0 30 22 52t54 22q31 0 53 -22t22 -52q0 -31 -22 -53t-53 -22zM413 793q-31 0 -52.5 21.5t-21.5 51.5t21.5 51.5t52.5 21.5t53 -22t22 -51q0 -30 -22 -51.5t-53 -21.5zM471 710h140l-239 -396v-314h-121v314l-237 396h138l159 -275h2z" />
    <glyph glyph-name="Zacute" unicode="&#x179;" horiz-adv-x="626" 
d="M451 932l-124 -145h-114l115 144zM210 108h357v-108h-510v95l350 506v1h-334v108h492v-93l-355 -507v-2z" />
    <glyph glyph-name="zacute" unicode="&#x17a;" horiz-adv-x="489" 
d="M385 701l-124 -145h-114l115 144zM445 411l-255 -315v-1h251v-95h-401v79l251 311v3h-234v95h388v-77z" />
    <glyph glyph-name="Zdotaccent" unicode="&#x17b;" horiz-adv-x="626" 
d="M313 791q-31 0 -53 22t-22 53q0 30 22 52t53 22t53.5 -22t22.5 -52q0 -31 -22.5 -53t-53.5 -22zM210 108h357v-108h-510v95l350 506v1h-334v108h492v-93l-355 -507v-2z" />
    <glyph glyph-name="zdotaccent" unicode="&#x17c;" horiz-adv-x="489" 
d="M247 560q-31 0 -53 22t-22 53q0 30 22 52t53 22t53.5 -22t22.5 -52q0 -31 -22.5 -53t-53.5 -22zM445 411l-255 -315v-1h251v-95h-401v79l251 311v3h-234v95h388v-77z" />
    <glyph glyph-name="Zcaron" unicode="&#x17d;" horiz-adv-x="626" 
d="M360 785h-100l-113 147h109l55 -76h2l55 76h110zM210 108h357v-108h-510v95l350 506v1h-334v108h492v-93l-355 -507v-2z" />
    <glyph glyph-name="zcaron" unicode="&#x17e;" horiz-adv-x="489" 
d="M294 554h-100l-113 147h109l55 -76h2l55 76h110zM445 411l-255 -315v-1h251v-95h-401v79l251 311v3h-234v95h388v-77z" />
    <glyph glyph-name="longs" unicode="&#x17f;" horiz-adv-x="337" 
d="M91 0v393h-54v95h54v89q0 82 38 124.5t110 42.5q70 0 122 -34l-25 -94q-53 25 -81 25q-52 0 -52 -76v-565h-112z" />
    <glyph glyph-name="uni018F" unicode="&#x18f;" horiz-adv-x="722" 
d="M348 718q140 0 229.5 -101t89.5 -264q0 -159 -88 -260t-225 -101q-130 0 -216.5 92t-86.5 256q0 19 3 46h488q-8 100 -61 160t-136 60q-80 0 -151 -41l-54 102q95 51 208 51zM350 107q71 0 121 47t66 128h-365q14 -80 61 -127.5t117 -47.5z" />
    <glyph glyph-name="florin" unicode="&#x192;" horiz-adv-x="549" 
d="M110 -143q-98 0 -140 42l40 79q40 -20 79 -20q71 0 83 91l42 325h-76l14 95h76l14 109q22 166 175 166q91 0 140 -42l-41 -79q-41 19 -80 19q-71 0 -82 -91l-10 -82h138l-13 -95h-139l-46 -351q-21 -166 -174 -166z" />
    <glyph glyph-name="uni019D" unicode="&#x19d;" horiz-adv-x="763" 
d="M556 710h120v-710h-123l-345 503v-536q0 -83 -40 -128t-105 -45q-50 0 -96 18l19 92q24 -14 45 -14q24 0 40 20t16 52v748h120l347 -510h2v510z" />
    <glyph glyph-name="Ohorn" unicode="&#x1a0;" horiz-adv-x="870" 
d="M732 774h114v-71q0 -142 -110 -180q36 -77 36 -168q0 -161 -101.5 -262t-256.5 -101q-159 0 -259 102.5t-100 260.5t100 260.5t259 102.5q176 0 279 -125q14 7 22.5 17.5t12 29.5t4 31t0.5 39v64zM414 105q99 0 165.5 71t66.5 179q0 109 -66.5 179.5t-165.5 70.5
q-103 0 -168.5 -72t-65.5 -178t65.5 -178t168.5 -72z" />
    <glyph glyph-name="ohorn" unicode="&#x1a1;" horiz-adv-x="681" 
d="M555 565h114v-71q0 -71 -30.5 -119t-88.5 -64l-1 -2q7 -37 7 -66q0 -111 -71.5 -181t-184.5 -70q-114 0 -185 71t-71 180t71 180.5t185 71.5q71 0 127.5 -29.5t89.5 -81.5q18 9 27 29.5t10 36.5t1 51v64zM300 94q60 0 101 42t41 107q0 67 -40.5 109t-101.5 42
q-63 0 -102.5 -43t-39.5 -108q0 -63 40 -106t102 -43z" />
    <glyph glyph-name="Uhorn" unicode="&#x1af;" horiz-adv-x="819" 
d="M703 774h114v-71q0 -86 -45 -137.5t-129 -53.5v-220q0 -139 -76 -219.5t-208 -80.5q-128 0 -205 79.5t-77 220.5v418h120v-409q0 -87 43.5 -141t118.5 -54q73 0 118 52.5t45 142.5v409h121v-124q22 5 35 15t18 30.5t6 33.5t1 45v64z" />
    <glyph glyph-name="uhorn" unicode="&#x1b0;" horiz-adv-x="687" 
d="M562 565h114v-71q0 -85 -43 -136t-124 -55v-303h-112v64q-60 -72 -151 -72q-183 0 -183 199v297h112v-267q0 -71 22.5 -99t74.5 -28t88.5 42.5t36.5 117.5v234h112v-110q13 4 23 10t15.5 17t8.5 18t4.5 24.5t1.5 24.5v29v64z" />
    <glyph glyph-name="Gcaron" unicode="&#x1e6;" horiz-adv-x="759" 
d="M453 785h-100l-113 147h109l55 -76h2l55 76h110zM397 379h294v-296q-49 -41 -123 -65t-155 -24q-157 0 -257.5 97.5t-100.5 262.5q0 160 96.5 262t257.5 102q77 0 150 -29.5t127 -87.5l-85 -74q-79 77 -193 77q-98 0 -162.5 -68.5t-64.5 -181.5q0 -108 63.5 -179
t168.5 -71q87 0 158 47v120h-174v108z" />
    <glyph glyph-name="gcaron" unicode="&#x1e7;" 
d="M340 554h-100l-113 147h109l55 -76h2l55 76h110zM428 488h112v-438q0 -118 -60 -186.5t-189 -68.5q-114 0 -199 51l27 98q47 -25 82.5 -36.5t83.5 -11.5q69 0 107 34.5t38 85.5v52h-1q-58 -60 -149 -60q-103 0 -170.5 67t-67.5 174t65.5 177t166.5 70q92 0 152 -60h2v52z
M295 111q61 0 99.5 40.5t38.5 102.5q0 61 -39.5 100t-98.5 39q-62 0 -100.5 -39.5t-38.5 -101.5q0 -64 39.5 -102.5t99.5 -38.5z" />
    <glyph glyph-name="uni01EA" unicode="&#x1ea;" horiz-adv-x="827" 
d="M476 -3q-31 -10 -49 -30t-18 -42q0 -41 43 -41q23 0 41 8l7 -68q-29 -12 -72 -12q-49 0 -78.5 24t-29.5 64q0 49 54 92v2q-143 13 -231 113.5t-88 247.5q0 158 100 260.5t259 102.5q155 0 256.5 -101t101.5 -262q0 -144 -82 -241t-214 -117zM180 355q0 -106 65.5 -178
t168.5 -72q99 0 165.5 71t66.5 179q0 109 -66.5 179.5t-165.5 70.5q-103 0 -168.5 -72t-65.5 -178z" />
    <glyph glyph-name="uni01EB" unicode="&#x1eb;" horiz-adv-x="600" 
d="M338 -6q-28 -10 -44 -29t-16 -40q0 -41 43 -41q23 0 41 8l7 -68q-29 -12 -72 -12q-49 0 -78.5 24t-29.5 64q0 52 58 95v2q-92 16 -147.5 83.5t-55.5 162.5q0 109 71 180.5t185 71.5q113 0 184.5 -70t71.5 -182q0 -101 -60 -169t-158 -80zM158 243q0 -63 40 -106t102 -43
q60 0 101 42t41 107q0 67 -40.5 109t-101.5 42q-63 0 -102.5 -43t-39.5 -108z" />
    <glyph glyph-name="Aringacute" unicode="&#x1fa;" horiz-adv-x="697" 
d="M349 761q-44 0 -76 30.5t-32 74.5t30.5 74.5t77.5 30.5q45 0 78 -31l57 42l126 1l-152 -118q-1 -44 -31.5 -74t-77.5 -30zM349 905q-16 0 -27 -11.5t-11 -26.5q0 -16 11 -27t27 -11t27.5 11t11.5 27t-11.5 27t-27.5 11zM548 0l-54 153h-290l-53 -153h-126l265 710h118
l266 -710h-126zM241 257h217l-108 308h-2z" />
    <glyph glyph-name="aringacute" unicode="&#x1fb;" horiz-adv-x="611" 
d="M304 530q-44 0 -76 30.5t-32 74.5q0 43 31 74t77 31q42 0 72 -25l60 44h127l-150 -115v-9q0 -44 -31 -74.5t-78 -30.5zM304 674q-16 0 -27 -11.5t-11 -26.5q0 -16 11 -27t27 -11t27.5 11t11.5 27t-11.5 27t-27.5 11zM431 429v59h112v-488h-107v65h-2q-54 -73 -155 -73
q-103 0 -169.5 69t-66.5 181q0 110 67 181.5t168 71.5q96 0 151 -66h2zM297 94q58 0 98.5 41t40.5 106t-39.5 109t-99.5 44t-100 -42t-40 -111q0 -65 39 -106t101 -41z" />
    <glyph glyph-name="AEacute" unicode="&#x1fc;" horiz-adv-x="955" 
d="M650 932l-124 -145h-114l115 144zM555 108h347v-108h-468v153h-222l-78 -153h-127l365 710h510v-108h-327v-195h268v-108h-268v-191zM265 257h169v328h-2z" />
    <glyph glyph-name="aeacute" unicode="&#x1fd;" horiz-adv-x="789" 
d="M571 701l-124 -145h-114l115 144zM760 250q0 -32 -3 -45h-326q10 -51 43.5 -81t83.5 -30q57 0 105 57l77 -67q-73 -92 -188 -92q-104 0 -168 77h-2q-59 -77 -173 -77q-89 0 -134 42t-45 109q0 73 49.5 114.5t143.5 41.5h97v6q0 49 -18.5 69t-56.5 20q-67 0 -136 -33
l-43 89q86 46 187 46q103 0 141 -75h1q61 74 160 74q90 0 147.5 -69t57.5 -176zM546 394q-40 0 -70 -25.5t-42 -69.5h213q-11 43 -38 69t-63 26zM220 89q38 0 68.5 24t32.5 48v46l-87 -1q-91 0 -91 -59q0 -25 20 -41.5t57 -16.5z" />
    <glyph glyph-name="Oslashacute" unicode="&#x1fe;" horiz-adv-x="827" 
d="M589 932l-124 -145h-114l115 144zM785 677l-85 -93q72 -96 72 -229q0 -161 -101.5 -262t-256.5 -101q-116 0 -205 58l-78 -85l-69 64l77 83q-84 98 -84 243q0 158 100 260.5t259 102.5q126 0 220 -69l83 90zM180 355q0 -86 44 -150l328 355q-61 45 -138 45
q-103 0 -168.5 -72t-65.5 -178zM646 355q0 75 -34 134l-321 -350q54 -34 123 -34q99 0 165.5 71t66.5 179z" />
    <glyph glyph-name="oslashacute" unicode="&#x1ff;" horiz-adv-x="600" 
d="M480 701l-124 -145h-114l115 144zM569 459l-59 -63q46 -67 46 -153q0 -111 -71.5 -181t-184.5 -70q-76 0 -135 34l-51 -55l-60 56l47 51q-57 68 -57 165q0 109 71 180.5t185 71.5q88 0 151 -43l59 63zM158 243q0 -44 22 -82l197 211q-35 22 -77 22q-63 0 -102.5 -43
t-39.5 -108zM442 243q0 35 -13 66l-189 -202q26 -13 60 -13q60 0 101 42t41 107z" />
    <glyph glyph-name="Scommaaccent" unicode="&#x218;" horiz-adv-x="591" 
d="M299 -8q-149 0 -257 112l76 93q37 -45 86 -69t96 -24q57 0 87.5 23t30.5 63q0 43 -30 65t-107 49q-49 17 -80.5 32.5t-66 40.5t-51.5 60.5t-17 82.5q0 83 66 140.5t159 57.5q123 1 235 -87l-72 -95q-88 73 -163 73q-43 0 -71 -22t-29 -61q0 -19 7 -32.5t28.5 -26.5
t39 -20.5t58.5 -23.5q110 -43 145 -67q75 -53 75 -151q0 -102 -74.5 -157.5t-170.5 -55.5zM231 -219l-26 65q30 11 42.5 24.5t12.5 37.5q0 14 -6 39h102q4 -20 4 -47q0 -54 -36.5 -83.5t-92.5 -35.5z" />
    <glyph glyph-name="scommaaccent" unicode="&#x219;" horiz-adv-x="449" 
d="M229 -8q-117 0 -197 71l56 84q58 -57 141 -57q32 0 50 13t18 35q0 17 -20.5 28.5t-75.5 30.5q-72 25 -110.5 60t-38.5 100q0 60 48.5 99t123.5 39q97 0 172 -61l-56 -88q-55 52 -122 52q-20 0 -36.5 -10.5t-16.5 -31.5q0 -30 77 -59q95 -37 119 -54q50 -35 50 -103
q0 -65 -46.5 -106.5t-135.5 -41.5zM149 -219l-26 65q30 11 42.5 24.5t12.5 37.5q0 14 -6 39h102q4 -20 4 -47q0 -54 -36.5 -83.5t-92.5 -35.5z" />
    <glyph glyph-name="uni021A" unicode="&#x21a;" horiz-adv-x="589" 
d="M233 0v602h-201v108h526v-108h-204v-602h-121zM214 -219l-26 65q30 11 42.5 24.5t12.5 37.5q0 14 -6 39h102q4 -20 4 -47q0 -54 -36.5 -83.5t-92.5 -35.5z" />
    <glyph glyph-name="uni021B" unicode="&#x21b;" horiz-adv-x="365" 
d="M218 -8q-64 0 -100 41t-36 121v239h-60v95h60v162l112 12v-174h143v-95h-143v-228q0 -37 11 -52.5t36 -15.5q33 0 72 21l29 -97q-53 -29 -124 -29zM137 -219l-26 65q30 11 42.5 24.5t12.5 37.5q0 14 -6 39h102q4 -20 4 -47q0 -54 -36.5 -83.5t-92.5 -35.5z" />
    <glyph glyph-name="uni0232" unicode="&#x232;" horiz-adv-x="625" 
d="M463 909v-94h-298v94h298zM471 710h140l-239 -396v-314h-121v314l-237 396h138l159 -275h2z" />
    <glyph glyph-name="uni0233" unicode="&#x233;" horiz-adv-x="535" 
d="M417 678v-94h-298v94h298zM398 488h117l-268 -686h-118l88 226l-198 460h118l135 -330z" />
    <glyph glyph-name="uni0237" unicode="&#x237;" horiz-adv-x="249" 
d="M46 -206q-51 0 -95 18l19 97q22 -14 44 -14q25 0 40.5 18.5t15.5 53.5v521h112v-521q0 -82 -38 -127.5t-98 -45.5z" />
    <glyph glyph-name="uni0259" unicode="&#x259;" horiz-adv-x="562" 
d="M261 496q107 0 182 -68.5t75 -184.5q0 -111 -67.5 -181t-170.5 -70q-107 0 -172 69t-65 177q0 32 3 44h359q-11 54 -51 83t-99 29q-64 0 -131 -34l-43 90q93 46 180 46zM274 94q104 0 129 98h-246q7 -47 39 -72.5t78 -25.5z" />
    <glyph glyph-name="uni0272" unicode="&#x272;" horiz-adv-x="593" 
d="M350 495q84 0 131.5 -51t47.5 -157v-287h-112v258q0 74 -26.5 105t-79.5 31q-58 0 -92 -39t-34 -110v-278q0 -83 -38.5 -128t-98.5 -45q-51 0 -95 18l19 92q24 -14 45 -14q24 0 40 20t16 52v526h112v-68h1q63 75 164 75z" />
    <glyph glyph-name="circumflex" unicode="&#x2c6;" horiz-adv-x="477" 
d="M294 536l-55 75h-2l-55 -75h-109l113 147h100l118 -147h-110z" />
    <glyph glyph-name="caron" unicode="&#x2c7;" horiz-adv-x="477" 
d="M294 683h110l-118 -147h-100l-113 147h109l55 -76h2z" />
    <glyph glyph-name="breve" unicode="&#x2d8;" horiz-adv-x="460" 
d="M230 533q-63 0 -107 38.5t-49 107.5h88q2 -30 20 -49t48 -19q29 0 47.5 18.5t20.5 49.5h88q-5 -65 -47.5 -105.5t-108.5 -40.5z" />
    <glyph glyph-name="dotaccent" unicode="&#x2d9;" horiz-adv-x="500" 
d="M250 542q-31 0 -53 22t-22 53q0 30 22 52t53 22t53.5 -22t22.5 -52q0 -31 -22.5 -53t-53.5 -22z" />
    <glyph glyph-name="ring" unicode="&#x2da;" horiz-adv-x="471" 
d="M235 512q-44 0 -76 30.5t-32 74.5q0 43 30.5 74t77.5 31q45 0 77 -30t32 -75q0 -44 -31 -74.5t-78 -30.5zM235 580q16 0 27.5 11t11.5 27t-11.5 27t-27.5 11t-27 -11.5t-11 -26.5q0 -16 11 -27t27 -11z" />
    <glyph glyph-name="ogonek" unicode="&#x2db;" horiz-adv-x="469" 
d="M272 -188q-49 0 -78.5 24t-29.5 64q0 29 23.5 61t64.5 53l85 -13q-38 -7 -61 -29t-23 -47q0 -41 43 -41q23 0 41 8l7 -68q-28 -12 -72 -12z" />
    <glyph glyph-name="tilde" unicode="&#x2dc;" horiz-adv-x="495" 
d="M327 535q-37 0 -88 32q-35 22 -56 22q-37 0 -58 -52l-68 31q34 110 114 110q40 0 84 -28q40 -25 58 -25q36 0 57 52l68 -23q-15 -56 -44 -87.5t-67 -31.5z" />
    <glyph glyph-name="hungarumlaut" unicode="&#x2dd;" horiz-adv-x="518" 
d="M52 538l115 144l114 1l-124 -145h-105zM243 538l114 144l114 1l-124 -145h-104z" />
    <glyph glyph-name="uni0374" unicode="&#x374;" horiz-adv-x="260" 
d="M34 475l52 254h116l-71 -254h-97z" />
    <glyph glyph-name="uni0375" unicode="&#x375;" horiz-adv-x="271" 
d="M64 -151l52 254h116l-71 -254h-97z" />
    <glyph glyph-name="uni037E" unicode="&#x37e;" horiz-adv-x="248" 
d="M118 346q-32 0 -54 21.5t-22 52.5t22.5 53t53.5 22t53 -22t22 -53t-22 -52.5t-53 -21.5zM27 -132l32 253h120l-70 -253h-82z" />
    <glyph glyph-name="tonos" unicode="&#x384;" horiz-adv-x="467" 
d="M149 538l58 169h129l-79 -169h-108z" />
    <glyph glyph-name="dieresistonos" unicode="&#x385;" horiz-adv-x="530" 
d="M186 547l13 169h104l-32 -169h-85zM90 542q-31 0 -53 22t-22 53q0 30 22 52t53 22t53.5 -22t22.5 -52q0 -31 -22.5 -53t-53.5 -22zM385 544q-31 0 -52.5 21.5t-21.5 51.5q0 29 22 51t52 22t52 -22t22 -51q0 -30 -22 -51.5t-52 -21.5z" />
    <glyph glyph-name="Alphatonos" unicode="&#x386;" horiz-adv-x="697" 
d="M548 0l-54 153h-290l-53 -153h-126l265 710h118l266 -710h-126zM181 707l-94 -169h-105l71 169h128zM241 257h217l-108 308h-2z" />
    <glyph glyph-name="anoteleia" unicode="&#x387;" horiz-adv-x="270" 
d="M135 346q-32 0 -54 21.5t-22 52.5t22.5 53t53.5 22t53 -22t22 -53t-22 -52.5t-53 -21.5z" />
    <glyph glyph-name="Epsilontonos" unicode="&#x388;" 
d="M-171 541l71 169h128l-94 -169h-105zM87 0v710h447v-108h-326v-196h263v-108h-263v-190h347v-108h-468z" />
    <glyph glyph-name="Etatonos" unicode="&#x389;" horiz-adv-x="736" 
d="M-172 541l71 169h128l-94 -169h-105zM87 0v710h121v-317h321v317h120v-710h-120v285h-321v-285h-121z" />
    <glyph glyph-name="Iotatonos" unicode="&#x38a;" horiz-adv-x="304" 
d="M-176 541l71 169h128l-94 -169h-105zM91 0v710h121v-710h-121z" />
    <glyph glyph-name="Omicrontonos" unicode="&#x38c;" horiz-adv-x="827" 
d="M414 -8q-159 0 -259 102.5t-100 260.5t100 260.5t259 102.5q155 0 256.5 -101t101.5 -262t-101.5 -262t-256.5 -101zM-109 541l71 169h128l-94 -169h-105zM414 105q99 0 165.5 71t66.5 179q0 109 -66.5 179.5t-165.5 70.5q-103 0 -168.5 -72t-65.5 -178t65.5 -178
t168.5 -72z" />
    <glyph glyph-name="Upsilontonos" unicode="&#x38e;" horiz-adv-x="625" 
d="M-227 541l71 169h128l-94 -169h-105zM471 710h140l-239 -396v-314h-121v314l-237 396h138l159 -275h2z" />
    <glyph glyph-name="Omegatonos" unicode="&#x38f;" horiz-adv-x="772" 
d="M589 110v-2h121v-108h-274v108q158 117 158 277q0 98 -57.5 159t-150.5 61q-93 -1 -150 -61.5t-57 -158.5q0 -161 157 -277v-108h-273v108h120v2q-130 109 -130 277q0 143 92.5 237t240.5 94t240.5 -94t92.5 -237q0 -168 -130 -277zM-49 710h128l-94 -169h-105z" />
    <glyph glyph-name="iotadieresistonos" unicode="&#x390;" horiz-adv-x="295" 
d="M91 565l13 169h104l-32 -169h-85zM-5 560q-31 0 -53 22t-22 53q0 30 22 52t53 22t53.5 -22t22.5 -52q0 -31 -22.5 -53t-53.5 -22zM290 562q-31 0 -52.5 21.5t-21.5 51.5q0 29 22 51t52 22t52 -22t22 -51q0 -30 -22 -51.5t-52 -21.5zM190 -8q-115 0 -115 124v372h112v-341
q0 -32 6 -41.5t26 -9.5q21 0 46 7l11 -93q-50 -18 -86 -18z" />
    <glyph glyph-name="Alpha" unicode="&#x391;" horiz-adv-x="697" 
d="M548 0l-54 153h-290l-53 -153h-126l265 710h118l266 -710h-126zM241 257h217l-108 308h-2z" />
    <glyph glyph-name="Beta" unicode="&#x392;" horiz-adv-x="648" 
d="M460 375q64 -16 102.5 -62.5t38.5 -117.5q0 -88 -59.5 -141.5t-173.5 -53.5h-281v710h247q111 0 171 -43.5t60 -129.5q0 -53 -26.5 -96.5t-78.5 -64.5v-1zM208 602v-186h115q50 0 84.5 23.5t34.5 70.5q0 93 -131 92h-103zM332 108q66 1 104.5 26t38.5 74q0 48 -36.5 76
t-104.5 28h-126v-204h124z" />
    <glyph glyph-name="Gamma" unicode="&#x393;" horiz-adv-x="580" 
d="M87 0v710h459v-108h-338v-602h-121z" />
    <glyph glyph-name="uni0394" unicode="&#x394;" horiz-adv-x="683" 
d="M401 710l244 -617v-93h-607v93l242 617h121zM174 108h333l-165 453h-2z" />
    <glyph glyph-name="Epsilon" unicode="&#x395;" 
d="M87 0v710h447v-108h-326v-196h263v-108h-263v-190h347v-108h-468z" />
    <glyph glyph-name="Zeta" unicode="&#x396;" horiz-adv-x="626" 
d="M210 108h357v-108h-510v95l350 506v1h-334v108h492v-93l-355 -507v-2z" />
    <glyph glyph-name="Eta" unicode="&#x397;" horiz-adv-x="736" 
d="M87 0v710h121v-317h321v317h120v-710h-120v285h-321v-285h-121z" />
    <glyph glyph-name="Theta" unicode="&#x398;" horiz-adv-x="838" 
d="M414 -8q-159 0 -259 102.5t-100 260.5t100 260.5t259 102.5q155 0 256.5 -101t101.5 -262t-101.5 -262t-256.5 -101zM414 105q99 0 165.5 71t66.5 179q0 109 -66.5 179.5t-165.5 70.5q-103 0 -168.5 -72t-65.5 -178t65.5 -178t168.5 -72zM273 296v108h295v-108h-295z" />
    <glyph glyph-name="Iota" unicode="&#x399;" horiz-adv-x="304" 
d="M91 0v710h121v-710h-121z" />
    <glyph glyph-name="Kappa" unicode="&#x39a;" horiz-adv-x="664" 
d="M290 296h-2l-80 -95v-201h-121v710h121v-340h2l272 340h154l-267 -317l275 -393h-150z" />
    <glyph glyph-name="Lambda" unicode="&#x39b;" horiz-adv-x="684" 
d="M526 0l-184 540h-2l-184 -540h-130l255 710h120l256 -710h-131z" />
    <glyph glyph-name="Mu" unicode="&#x39c;" horiz-adv-x="886" 
d="M678 710h121v-710h-121v476h-1l-195 -339h-79l-194 339h-1v-476h-121v710h121l234 -425h2z" />
    <glyph glyph-name="Nu" unicode="&#x39d;" horiz-adv-x="763" 
d="M556 710h120v-710h-123l-345 503v-503h-121v710h120l347 -510h2v510z" />
    <glyph glyph-name="Xi" unicode="&#x39e;" horiz-adv-x="642" 
d="M69 598v112h504v-112h-504zM121 296v109h398v-109h-398zM62 0v112h518v-112h-518z" />
    <glyph glyph-name="Omicron" unicode="&#x39f;" horiz-adv-x="827" 
d="M414 -8q-159 0 -259 102.5t-100 260.5t100 260.5t259 102.5q155 0 256.5 -101t101.5 -262t-101.5 -262t-256.5 -101zM414 105q99 0 165.5 71t66.5 179q0 109 -66.5 179.5t-165.5 70.5q-103 0 -168.5 -72t-65.5 -178t65.5 -178t168.5 -72z" />
    <glyph glyph-name="Pi" unicode="&#x3a0;" horiz-adv-x="709" 
d="M87 0v710h535v-710h-121v602h-293v-602h-121z" />
    <glyph glyph-name="Rho" unicode="&#x3a1;" horiz-adv-x="629" 
d="M87 0v710h257q122 0 182.5 -62.5t60.5 -167.5q0 -112 -69 -169.5t-188 -57.5h-122v-253h-121zM208 362h110q72 0 108 32.5t36 87.5q0 57 -35 88.5t-100 31.5h-119v-240z" />
    <glyph glyph-name="Sigma" unicode="&#x3a3;" horiz-adv-x="589" 
d="M547 602h-332v-1l176 -245l-176 -247v-1h332v-108h-494v85l192 271l-192 266v88h494v-108z" />
    <glyph glyph-name="Tau" unicode="&#x3a4;" horiz-adv-x="589" 
d="M233 0v602h-201v108h526v-108h-204v-602h-121z" />
    <glyph glyph-name="Upsilon" unicode="&#x3a5;" horiz-adv-x="625" 
d="M471 710h140l-239 -396v-314h-121v314l-237 396h138l159 -275h2z" />
    <glyph glyph-name="Phi" unicode="&#x3a6;" horiz-adv-x="814" 
d="M771 357q0 -122 -80 -200t-222 -92v-65h-121v65q-144 14 -224.5 91.5t-80.5 200.5q0 125 81 207.5t224 98.5v59h121v-59q141 -16 221.5 -98.5t80.5 -207.5zM169 357q0 -76 48 -124t134 -60v380q-86 -13 -134 -65t-48 -131zM467 173q85 13 131.5 60.5t46.5 123.5
q0 78 -47 130t-131 65v-379z" />
    <glyph glyph-name="Chi" unicode="&#x3a7;" horiz-adv-x="694" 
d="M521 0l-173 262h-2l-173 -262h-141l235 356l-230 354h139l171 -260h1l171 260h138l-230 -354l236 -356h-142z" />
    <glyph glyph-name="Psi" unicode="&#x3a8;" horiz-adv-x="797" 
d="M614 710h121l-1 -256q0 -141 -69 -216.5t-207 -76.5v-161h-121v161q-135 1 -205 76.5t-70 216.5l1 256h121l-1 -243q0 -100 36 -147.5t118 -50.5v441h121v-441q79 2 117 49.5t39 148.5v243z" />
    <glyph glyph-name="uni03A9" unicode="&#x3a9;" horiz-adv-x="772" 
d="M589 110v-2h121v-108h-274v108q158 117 158 277q0 98 -57.5 159t-150.5 61q-93 -1 -150 -61.5t-57 -158.5q0 -161 157 -277v-108h-273v108h120v2q-130 109 -130 277q0 143 92.5 237t240.5 94t240.5 -94t92.5 -237q0 -168 -130 -277z" />
    <glyph glyph-name="Iotadieresis" unicode="&#x3aa;" horiz-adv-x="304" 
d="M46 791q-31 0 -53 22t-22 53q0 30 22 52t53 22t53.5 -22t22.5 -52q0 -31 -22.5 -53t-53.5 -22zM260 793q-31 0 -53 21.5t-22 51.5q0 29 22.5 51t52.5 22t52 -22t22 -51q0 -30 -22 -51.5t-52 -21.5zM91 0v710h121v-710h-121z" />
    <glyph glyph-name="Upsilondieresis" unicode="&#x3ab;" horiz-adv-x="625" 
d="M202 791q-31 0 -53 22t-22 53q0 30 22 52t53 22t53.5 -22t22.5 -52q0 -31 -22.5 -53t-53.5 -22zM416 793q-31 0 -53 21.5t-22 51.5q0 29 22.5 51t52.5 22t52 -22t22 -51q0 -30 -22 -51.5t-52 -21.5zM471 710h140l-239 -396v-314h-121v314l-237 396h138l159 -275h2z" />
    <glyph glyph-name="alphatonos" unicode="&#x3ac;" horiz-adv-x="593" 
d="M432 725l-79 -169h-108l58 169h129zM570 100l11 -91q-40 -17 -81 -17q-74 0 -88 71h-2q-51 -70 -147 -70q-102 0 -161.5 68.5t-59.5 180.5q0 110 63.5 181.5t163.5 71.5q99 0 152 -81h2l2 74h106l-25 -242v-93q0 -32 7 -45t27 -13q15 0 30 5zM276 94q56 0 93 40t45 107
q-1 72 -35.5 112.5t-93.5 40.5q-56 0 -92.5 -42t-36.5 -111q0 -65 32.5 -106t87.5 -41z" />
    <glyph glyph-name="epsilontonos" unicode="&#x3ad;" horiz-adv-x="508" 
d="M387 725l-79 -169h-108l58 169h129zM428 134l52 -81q-54 -36 -108.5 -48.5t-127.5 -12.5q-90 0 -142.5 37t-52.5 105q0 87 82 121q-68 36 -68 101q0 63 48.5 100.5t139.5 39.5q129 2 221 -52l-47 -83q-82 35 -157 33q-91 -1 -91 -47q0 -20 21.5 -35t63.5 -15l84 -1v-95
h-91q-45 0 -67 -17.5t-22 -37.5q0 -52 107 -52q90 0 155 40z" />
    <glyph glyph-name="etatonos" unicode="&#x3ae;" horiz-adv-x="590" 
d="M427 725l-79 -169h-108l58 169h129zM347 495q84 0 131 -51t47 -157v-485h-112v456q0 136 -106 136q-54 0 -87.5 -40t-33.5 -111v-243h-112v488h112v-68h1q63 75 160 75z" />
    <glyph glyph-name="iotatonos" unicode="&#x3af;" horiz-adv-x="283" 
d="M78 556l58 169h129l-79 -169h-108zM190 -8q-115 0 -115 124v372h112v-341q0 -32 6 -41.5t26 -9.5q21 0 46 7l11 -93q-50 -18 -86 -18z" />
    <glyph glyph-name="upsilondieresistonos" unicode="&#x3b0;" horiz-adv-x="563" 
d="M235 565l13 169h104l-32 -169h-85zM139 560q-31 0 -53 22t-22 53q0 30 22 52t53 22t53.5 -22t22.5 -52q0 -31 -22.5 -53t-53.5 -22zM434 562q-31 0 -52.5 21.5t-21.5 51.5q0 29 22 51t52 22t52 -22t22 -51q0 -30 -22 -51.5t-52 -21.5zM281 -8q-101 0 -160.5 62.5
t-59.5 181.5v252h112v-241q0 -76 30 -114.5t78 -38.5q52 0 81 37.5t29 115.5v241h111v-252q0 -120 -58.5 -182t-162.5 -62z" />
    <glyph glyph-name="alpha" unicode="&#x3b1;" horiz-adv-x="593" 
d="M570 100l11 -91q-40 -17 -81 -17q-74 0 -88 71h-2q-51 -70 -147 -70q-102 0 -161.5 68.5t-59.5 180.5q0 110 63.5 181.5t163.5 71.5q99 0 152 -81h2l2 74h106l-25 -242v-93q0 -32 7 -45t27 -13q15 0 30 5zM276 94q56 0 93 40t45 107q-1 72 -35.5 112.5t-93.5 40.5
q-56 0 -92.5 -42t-36.5 -111q0 -65 32.5 -106t87.5 -41z" />
    <glyph glyph-name="beta" unicode="&#x3b2;" horiz-adv-x="598" 
d="M438 400q55 -25 87 -74.5t32 -106.5q0 -105 -62.5 -166t-166.5 -61q-86 0 -141 53h-1v-243h-112v689q0 124 62 188.5t166 64.5q101 0 160 -52.5t59 -133.5q0 -110 -83 -157v-1zM316 93q58 0 92.5 33t34.5 88q0 50 -38.5 86.5t-105.5 36.5h-41v95h36q116 1 116 114
q0 41 -27 69t-77 28q-52 0 -86 -35.5t-34 -108.5v-274q0 -53 37 -92.5t93 -39.5z" />
    <glyph glyph-name="gamma" unicode="&#x3b3;" horiz-adv-x="533" 
d="M514 488l-191 -489q5 -21 8 -49.5t3.5 -44.5t1 -56t0.5 -47h-110v31.5t-0.5 36t-2.5 34t-4.5 40t-8 37.5t-13.5 42l-177 465h121l125 -357h3l124 357h121z" />
    <glyph glyph-name="delta" unicode="&#x3b4;" horiz-adv-x="575" 
d="M389 466q61 -31 104 -90t43 -142q0 -110 -68.5 -176t-174.5 -66q-111 0 -181 69.5t-70 177.5q0 151 142 225q-75 54 -75 134q0 61 52 103t131 43q132 2 224 -52l-47 -88q-71 38 -163 38q-85 0 -85 -51q0 -21 17 -36t67 -42q50 -29 84 -47zM293 94q56 0 93 37.5t37 102.5
q0 106 -128 166q-21 10 -25 13q-54 -26 -84.5 -71.5t-30.5 -102.5q0 -64 38 -104.5t100 -40.5z" />
    <glyph glyph-name="epsilon" unicode="&#x3b5;" horiz-adv-x="508" 
d="M428 134l52 -81q-54 -36 -108.5 -48.5t-127.5 -12.5q-90 0 -142.5 37t-52.5 105q0 87 82 121q-68 36 -68 101q0 63 48.5 100.5t139.5 39.5q129 2 221 -52l-47 -83q-82 35 -157 33q-91 -1 -91 -47q0 -20 21.5 -35t63.5 -15l84 -1v-95h-91q-45 0 -67 -17.5t-22 -37.5
q0 -52 107 -52q90 0 155 40z" />
    <glyph glyph-name="zeta" unicode="&#x3b6;" horiz-adv-x="468" 
d="M468 652q-137 -104 -224.5 -215t-88.5 -203q0 -29 10 -50.5t33.5 -36.5t45.5 -23.5t61 -20.5q94 -28 127.5 -61.5t33.5 -89.5q0 -83 -85 -172l-94 51q2 3 12 13.5t13.5 14.5t11 13.5t11 15.5t8 14.5t6.5 17t2 16.5q0 25 -22.5 42.5t-97.5 37.5q-41 11 -71 25t-59 38.5
t-44 63.5t-15 91q1 179 267 406v1h-229v95h388v-84z" />
    <glyph glyph-name="eta" unicode="&#x3b7;" horiz-adv-x="590" 
d="M347 495q84 0 131 -51t47 -157v-485h-112v456q0 136 -106 136q-54 0 -87.5 -40t-33.5 -111v-243h-112v488h112v-68h1q63 75 160 75z" />
    <glyph glyph-name="theta" unicode="&#x3b8;" horiz-adv-x="592" 
d="M296 744q115 0 184.5 -94t69.5 -281q0 -170 -62 -273.5t-192 -103.5q-116 0 -185 93.5t-69 283.5q0 108 24.5 189.5t83 133.5t146.5 52zM296 643q-61 0 -96 -59t-42 -164h277q-7 107 -43 165t-96 58zM296 94q63 0 98.5 60.5t41.5 170.5h-279q6 -112 41.5 -171.5
t97.5 -59.5z" />
    <glyph glyph-name="iota" unicode="&#x3b9;" horiz-adv-x="283" 
d="M190 -8q-115 0 -115 124v372h112v-341q0 -32 6 -41.5t26 -9.5q21 0 46 7l11 -93q-50 -18 -86 -18z" />
    <glyph glyph-name="kappa" unicode="&#x3ba;" horiz-adv-x="576" 
d="M265 203h-1l-79 -80v-123h-112v488h112v-224h1l218 224h140l-199 -203l218 -285h-139z" />
    <glyph glyph-name="lambda" unicode="&#x3bb;" horiz-adv-x="553" 
d="M415 0l-126 357h-1l-142 -357h-122l210 501l-24 66q-25 78 -77 78q-27 0 -55 -10l-15 93q53 16 100 16q55 0 92 -39t67 -123l211 -582h-118z" />
    <glyph glyph-name="uni03BC" unicode="&#x3bc;" horiz-adv-x="580" 
d="M401 488h112v-488h-102l-6 65h-1q-59 -73 -143 -73q-56 0 -86 32h-2q6 -53 6 -107v-115h-112v686h112v-254q0 -140 106 -140q51 0 83.5 40t32.5 110v244z" />
    <glyph glyph-name="nu" unicode="&#x3bd;" horiz-adv-x="534" 
d="M394 488h120l-193 -488h-107l-194 488h119l128 -348h1z" />
    <glyph glyph-name="xi" unicode="&#x3be;" horiz-adv-x="496" 
d="M319 99q88 -34 123 -66.5t35 -83.5q0 -39 -27 -88t-58 -81l-94 51q65 67 65 105q0 22 -21.5 38.5t-77.5 36.5q-47 16 -81 33t-68 42.5t-52 61t-18 79.5q0 51 33 97.5t90 73.5v2q-89 51 -89 155q0 92 63 140.5t142 48.5q118 0 206 -52l-47 -88q-69 38 -144 38
q-51 0 -79 -26.5t-28 -66.5q0 -110 183 -110h58v-95h-110q-76 0 -120 -33t-44 -77q0 -45 37.5 -73.5t122.5 -61.5z" />
    <glyph glyph-name="omicron" unicode="&#x3bf;" horiz-adv-x="584" 
d="M292 -8q-110 0 -180 70t-70 181q0 112 70 182t180 70t180 -70t70 -182q0 -111 -70 -181t-180 -70zM292 94q58 0 97.5 42t39.5 107q0 67 -39 109t-98 42t-98 -42t-39 -109q0 -65 39.5 -107t97.5 -42z" />
    <glyph glyph-name="pi" unicode="&#x3c0;" horiz-adv-x="611" 
d="M589 488v-95h-81v-393h-112v393h-182v-393h-111v393h-76v95h562z" />
    <glyph glyph-name="rho" unicode="&#x3c1;" horiz-adv-x="602" 
d="M307 495q109 0 181.5 -71.5t72.5 -181.5t-66 -180t-164 -70q-93 0 -152 56h-2v-246h-112v440q0 111 66 182t176 71zM307 94q61 0 100.5 42t39.5 105q0 68 -40.5 110.5t-99.5 42.5q-58 0 -96.5 -44t-38.5 -109t39 -106t96 -41z" />
    <glyph glyph-name="uni03C2" unicode="&#x3c2;" horiz-adv-x="508" 
d="M377 -221l-94 52q4 4 15 16t15 16.5t12 15.5t11.5 18t6.5 17.5t3 21.5q0 23 -18.5 38.5t-72.5 34.5q-49 17 -83.5 35t-67.5 47t-50 71t-17 97q0 105 70.5 170.5t184.5 65.5q57 0 111 -23.5t90 -67.5l-76 -66q-48 56 -122 56q-66 0 -105.5 -38t-39.5 -97t41.5 -95
t127.5 -65q79 -27 110 -61.5t31 -88.5q0 -35 -16 -71.5t-26.5 -50t-40.5 -48.5z" />
    <glyph glyph-name="sigma" unicode="&#x3c3;" horiz-adv-x="601" 
d="M583 393h-119v-1q76 -71 76 -169q0 -101 -68.5 -166t-179.5 -65q-110 0 -179 67.5t-69 179.5q0 110 70.5 179.5t181.5 69.5h287v-95zM292 94q61 0 96.5 40.5t35.5 104.5q0 94 -77 154h-51q-60 0 -99 -44t-39 -110t38.5 -105.5t95.5 -39.5z" />
    <glyph glyph-name="tau" unicode="&#x3c4;" horiz-adv-x="467" 
d="M287 -8q-132 0 -132 156v245h-135v95h421v-95h-174v-221q0 -41 11 -59t44 -18q30 0 74 23l29 -97q-64 -29 -138 -29z" />
    <glyph glyph-name="upsilon" unicode="&#x3c5;" horiz-adv-x="563" 
d="M281 -8q-101 0 -160.5 62.5t-59.5 181.5v252h112v-241q0 -76 30 -114.5t78 -38.5q52 0 81 37.5t29 115.5v241h111v-252q0 -120 -58.5 -182t-162.5 -62z" />
    <glyph glyph-name="phi" unicode="&#x3c6;" horiz-adv-x="714" 
d="M671 266q0 -113 -72 -189t-193 -80v-195h-112v195q-109 3 -178.5 70.5t-69.5 175.5q0 84 25.5 143t73.5 116l113 -31q-46 -46 -72 -104.5t-26 -113.5q0 -63 36 -105t98 -49v195q0 99 45.5 150.5t118.5 51.5q95 0 154 -66t59 -164zM406 98q73 5 112.5 51t39.5 114
q0 49 -25.5 90.5t-66.5 41.5q-27 0 -41 -18.5t-16.5 -38.5t-2.5 -53v-187z" />
    <glyph glyph-name="chi" unicode="&#x3c7;" horiz-adv-x="525" 
d="M512 -102l12 -87q-34 -17 -72 -17q-45 0 -73.5 27t-53.5 82l-64 139h-1l-123 -240h-122l194 351l-98 190q-15 27 -28 39.5t-32 12.5q-5 0 -25 -4l-14 88q34 17 77 17t71 -28t52 -81l55 -124h1l117 225h120l-185 -333l106 -208q26 -53 56 -53q6 0 30 4z" />
    <glyph glyph-name="psi" unicode="&#x3c8;" horiz-adv-x="718" 
d="M547 488h112v-255q0 -116 -66.5 -177.5t-177.5 -63.5v-190h-112v190q-111 2 -177.5 63.5t-66.5 177.5v255h111v-243q0 -72 37 -109t96 -39v546h112v-546q58 2 95 39t37 109v243z" />
    <glyph glyph-name="omega" unicode="&#x3c9;" horiz-adv-x="766" 
d="M624 503q46 -52 71 -114t25 -157q0 -109 -55.5 -174.5t-133.5 -65.5q-105 0 -148 92h-1q-43 -92 -148 -92q-78 0 -133.5 65.5t-55.5 174.5q0 95 25.5 157t71.5 114l101 -23q-34 -45 -59 -110t-25 -127q0 -71 24.5 -110t65.5 -39q35 0 56.5 40t21.5 110v121h111v-121
q0 -70 22 -110t57 -40q41 0 65 39t24 110q0 62 -25 127t-59 110z" />
    <glyph glyph-name="iotadieresis" unicode="&#x3ca;" horiz-adv-x="283" 
d="M28 560q-31 0 -53 22t-22 53q0 30 22 52t53 22t53.5 -22t22.5 -52q0 -31 -22.5 -53t-53.5 -22zM242 562q-31 0 -53 21.5t-22 51.5q0 29 22.5 51t52.5 22t52 -22t22 -51q0 -30 -22 -51.5t-52 -21.5zM190 -8q-115 0 -115 124v372h112v-341q0 -32 6 -41.5t26 -9.5q21 0 46 7
l11 -93q-50 -18 -86 -18z" />
    <glyph glyph-name="upsilondieresis" unicode="&#x3cb;" horiz-adv-x="563" 
d="M176 560q-31 0 -53 22t-22 53q0 30 22 52t53 22t53.5 -22t22.5 -52q0 -31 -22.5 -53t-53.5 -22zM390 562q-31 0 -53 21.5t-22 51.5q0 29 22.5 51t52.5 22t52 -22t22 -51q0 -30 -22 -51.5t-52 -21.5zM281 -8q-101 0 -160.5 62.5t-59.5 181.5v252h112v-241q0 -76 30 -114.5
t78 -38.5q52 0 81 37.5t29 115.5v241h111v-252q0 -120 -58.5 -182t-162.5 -62z" />
    <glyph glyph-name="omicrontonos" unicode="&#x3cc;" horiz-adv-x="584" 
d="M235 556l58 169h129l-79 -169h-108zM292 -8q-110 0 -180 70t-70 181q0 112 70 182t180 70t180 -70t70 -182q0 -111 -70 -181t-180 -70zM292 94q58 0 97.5 42t39.5 107q0 67 -39 109t-98 42t-98 -42t-39 -109q0 -65 39.5 -107t97.5 -42z" />
    <glyph glyph-name="upsilontonos" unicode="&#x3cd;" horiz-adv-x="563" 
d="M226 556l58 169h129l-79 -169h-108zM281 -8q-101 0 -160.5 62.5t-59.5 181.5v252h112v-241q0 -76 30 -114.5t78 -38.5q52 0 81 37.5t29 115.5v241h111v-252q0 -120 -58.5 -182t-162.5 -62z" />
    <glyph glyph-name="omegatonos" unicode="&#x3ce;" horiz-adv-x="766" 
d="M515 725l-79 -169h-108l58 169h129zM624 503q46 -52 71 -114t25 -157q0 -109 -55.5 -174.5t-133.5 -65.5q-105 0 -148 92h-1q-43 -92 -148 -92q-78 0 -133.5 65.5t-55.5 174.5q0 95 25.5 157t71.5 114l101 -23q-34 -45 -59 -110t-25 -127q0 -71 24.5 -110t65.5 -39
q35 0 56.5 40t21.5 110v121h111v-121q0 -70 22 -110t57 -40q41 0 65 39t24 110q0 62 -25 127t-59 110z" />
    <glyph glyph-name="uni03D7" unicode="&#x3d7;" horiz-adv-x="598" 
d="M343 282q37 -93 86.5 -138.5t145.5 -65.5v-66q-115 -125 -195 -176.5t-184 -51.5q-109 0 -191 49l22 100q70 -54 153 -54q117 0 251 117v3q-123 60 -168 199h-1l-77 -84v-114h-112v488h112v-228l210 228h135l-187 -203v-3z" />
    <glyph glyph-name="Wgrave" unicode="&#x1e80;" horiz-adv-x="1035" 
d="M573 787h-114l-124 145l123 -1zM875 710h128l-225 -710h-113l-145 534h-2l-148 -534h-113l-225 710h129l152 -513h1l140 513h128l139 -514h1z" />
    <glyph glyph-name="wgrave" unicode="&#x1e81;" horiz-adv-x="771" 
d="M441 556h-114l-124 145l123 -1zM634 488h114l-168 -488h-103l-92 307h-1l-92 -307h-101l-168 488h114l105 -321h2l94 321h94l95 -322h2z" />
    <glyph glyph-name="Wacute" unicode="&#x1e82;" horiz-adv-x="1035" 
d="M705 932l-124 -145h-114l115 144zM875 710h128l-225 -710h-113l-145 534h-2l-148 -534h-113l-225 710h129l152 -513h1l140 513h128l139 -514h1z" />
    <glyph glyph-name="wacute" unicode="&#x1e83;" horiz-adv-x="771" 
d="M569 701l-124 -145h-114l115 144zM634 488h114l-168 -488h-103l-92 307h-1l-92 -307h-101l-168 488h114l105 -321h2l94 321h94l95 -322h2z" />
    <glyph glyph-name="Wdieresis" unicode="&#x1e84;" horiz-adv-x="1035" 
d="M420 791q-32 0 -54 22t-22 53q0 30 22 52t54 22q31 0 53 -22t22 -52q0 -31 -22 -53t-53 -22zM618 793q-31 0 -52.5 21.5t-21.5 51.5t22 51.5t52 21.5q31 0 53 -22t22 -51q0 -30 -22 -51.5t-53 -21.5zM875 710h128l-225 -710h-113l-145 534h-2l-148 -534h-113l-225 710
h129l152 -513h1l140 513h128l139 -514h1z" />
    <glyph glyph-name="wdieresis" unicode="&#x1e85;" horiz-adv-x="771" 
d="M286 560q-32 0 -54 22t-22 53q0 30 22 52t54 22q31 0 53 -22t22 -52q0 -31 -22 -53t-53 -22zM484 562q-31 0 -52.5 21.5t-21.5 51.5q0 29 22 51t52 22q31 0 53 -22t22 -51q0 -30 -22 -51.5t-53 -21.5zM634 488h114l-168 -488h-103l-92 307h-1l-92 -307h-101l-168 488h114
l105 -321h2l94 321h94l95 -322h2z" />
    <glyph glyph-name="uni1E9E" unicode="&#x1e9e;" horiz-adv-x="762" 
d="M523 422q108 -43 142 -68q74 -53 74 -149q0 -69 -38 -119.5t-89.5 -72t-107.5 -21.5q-115 0 -215 82l56 109q36 -38 79.5 -58.5t80.5 -20.5q51 0 79.5 23.5t28.5 62.5q0 43 -30 65t-107 49q-44 15 -112 47l125 245v1q-98 12 -142 12q-80 0 -117.5 -31t-38.5 -105v-473
h-121l1 479q0 239 262 239q119 0 321 -47z" />
    <glyph glyph-name="uni1EA0" unicode="&#x1ea0;" horiz-adv-x="697" 
d="M674 0h-126l-54 153h-290l-53 -153h-126l265 710h118zM241 257h217l-108 308h-2zM351 -97q31 0 53 -22t22 -53q0 -30 -22 -52t-53 -22t-53.5 22t-22.5 52q0 31 22.5 53t53.5 22z" />
    <glyph glyph-name="uni1EA1" unicode="&#x1ea1;" horiz-adv-x="611" 
d="M431 488h112v-488h-107v65h-2q-54 -73 -155 -73q-103 0 -169.5 69t-66.5 181q0 110 67 181.5t168 71.5q96 0 151 -66h2v59zM297 94q58 0 98.5 41t40.5 106t-39.5 109t-99.5 44t-100 -42t-40 -111q0 -65 39 -106t101 -41zM294 -97q31 0 53 -22t22 -53q0 -30 -22 -52
t-53 -22t-53.5 22t-22.5 52q0 31 22.5 53t53.5 22z" />
    <glyph glyph-name="uni1EA2" unicode="&#x1ea2;" horiz-adv-x="697" 
d="M353 889q-42 0 -71 -31l-45 42q20 21 54 34.5t69 13.5q47 0 73 -21.5t26 -56.5q0 -62 -89 -80l-8 -26h-44q-20 18 -20 30q0 16 42 37t42 38q0 20 -29 20zM548 0l-54 153h-290l-53 -153h-126l265 710h118l266 -710h-126zM241 257h217l-108 308h-2z" />
    <glyph glyph-name="uni1EA3" unicode="&#x1ea3;" horiz-adv-x="611" 
d="M309 658q-42 0 -71 -31l-45 42q20 21 54 34.5t69 13.5q47 0 73 -21.5t26 -56.5q0 -62 -89 -80l-8 -26h-44q-20 18 -20 30q0 16 42 37t42 38q0 20 -29 20zM431 488h112v-488h-107v65h-2q-54 -73 -155 -73q-103 0 -169.5 69t-66.5 181q0 110 67 181.5t168 71.5
q96 0 151 -66h2v59zM297 94q58 0 98.5 41t40.5 106t-39.5 109t-99.5 44t-100 -42t-40 -111q0 -65 39 -106t101 -41z" />
    <glyph glyph-name="uni1EA4" unicode="&#x1ea4;" horiz-adv-x="697" 
d="M729 954l-153 -145h-85l115 144zM347 845l-55 -75h-109l113 147h100l118 -147h-110l-55 75h-2zM290 710h118l266 -710h-126l-54 153h-290l-53 -153h-126zM241 257h217l-108 308h-2z" />
    <glyph glyph-name="uni1EA5" unicode="&#x1ea5;" horiz-adv-x="611" 
d="M658 789l-153 -145h-85l115 145h123zM304 629l-55 -75h-109l113 147h100l118 -147h-110l-55 75h-2zM431 429v59h112v-488h-107v65h-2q-54 -73 -155 -73q-103 0 -169.5 69t-66.5 181q0 110 67 181.5t168 71.5q96 0 151 -66h2zM297 94q58 0 98.5 41t40.5 106t-39.5 109
t-99.5 44t-100 -42t-40 -111q0 -65 39 -106t101 -41z" />
    <glyph glyph-name="uni1EA6" unicode="&#x1ea6;" horiz-adv-x="697" 
d="M632 809h-84l-124 145h123zM347 845l-55 -75h-109l113 147h100l118 -147h-110l-55 75h-2zM548 0l-54 153h-290l-53 -153h-126l265 710h118l266 -710h-126zM241 257h217l-108 308h-2z" />
    <glyph glyph-name="uni1EA7" unicode="&#x1ea7;" horiz-adv-x="611" 
d="M542 644h-85l-124 145h124zM304 629l-55 -75h-109l113 147h100l118 -147h-110l-55 75h-2zM431 488h112v-488h-107v65h-2q-54 -73 -155 -73q-103 0 -169.5 69t-66.5 181q0 110 67 181.5t168 71.5q96 0 151 -66h2v59zM297 94q58 0 98.5 41t40.5 106t-39.5 109t-99.5 44
t-100 -42t-40 -111q0 -65 39 -106t101 -41z" />
    <glyph glyph-name="uni1EA8" unicode="&#x1ea8;" horiz-adv-x="697" 
d="M566 903q-42 0 -71 -31l-45 43q20 21 54 34t69 13q44 0 69 -21.5t25 -56.5q0 -61 -84 -80l-8 -26h-44q-20 17 -20 31q0 13 19.5 24.5t39.5 23.5t20 26q0 20 -24 20zM347 845l-55 -75h-109l113 147h100l118 -147h-110l-55 75h-2zM548 0l-54 153h-290l-53 -153h-126
l265 710h118l266 -710h-126zM241 257h217l-108 308h-2z" />
    <glyph glyph-name="uni1EA9" unicode="&#x1ea9;" horiz-adv-x="611" 
d="M485 802q44 0 69.5 -22t25.5 -56q0 -62 -84 -81l-9 -25h-44q-19 16 -19 30q0 15 39.5 36.5t39.5 38.5q0 20 -25 20q-41 0 -71 -32l-45 43q21 21 55 34.5t68 13.5zM303 629l-55 -75h-109l113 147h100l118 -147h-110l-55 75h-2zM431 429v59h112v-488h-107v65h-2
q-54 -73 -155 -73q-103 0 -169.5 69t-66.5 181q0 110 67 181.5t168 71.5q96 0 151 -66h2zM297 94q58 0 98.5 41t40.5 106t-39.5 109t-99.5 44t-100 -42t-40 -111q0 -65 39 -106t101 -41z" />
    <glyph glyph-name="uni1EAA" unicode="&#x1eaa;" horiz-adv-x="697" 
d="M291 912q-20 0 -40 -35l-57 20q12 34 35.5 54.5t51.5 20.5q29 0 75 -23q26 -13 41 -13q31 0 49 35l56 -15q-12 -38 -36.5 -59.5t-56.5 -21.5q-24 0 -68 20q-32 17 -50 17zM345 805l-60 -68h-103l113 122h100l118 -122h-103l-61 68h-4zM548 0l-54 153h-290l-53 -153h-126
l265 710h118l266 -710h-126zM241 257h217l-108 308h-2z" />
    <glyph glyph-name="uni1EAB" unicode="&#x1eab;" horiz-adv-x="611" 
d="M247 768q-27 0 -48 -52l-68 31q15 50 42.5 80t61.5 30q6 0 12 -0.5t11.5 -1.5t9.5 -2t9 -3t7.5 -3.5t8 -4.5t7 -4t7.5 -4.5t7 -4.5q40 -25 58 -25q36 0 57 52l68 -23q-15 -56 -44 -87.5t-67 -31.5q-37 0 -88 32q-3 2 -10 6.5t-10 6.5t-8.5 4.5t-11 3.5t-11.5 1zM253 701
h100l118 -147h-110l-55 75h-2l-55 -75h-109zM431 488h112v-488h-107v65h-2q-54 -73 -155 -73q-103 0 -169.5 69t-66.5 181q0 110 67 181.5t168 71.5q96 0 151 -66h2v59zM297 94q58 0 98.5 41t40.5 106t-39.5 109t-99.5 44t-100 -42t-40 -111q0 -65 39 -106t101 -41z" />
    <glyph glyph-name="uni1EAC" unicode="&#x1eac;" horiz-adv-x="697" 
d="M347 860l-55 -75h-109l113 147h100l118 -147h-110l-55 75h-2zM674 0h-126l-54 153h-290l-53 -153h-126l265 710h118zM241 257h217l-108 308h-2zM351 -97q31 0 53 -22t22 -53q0 -30 -22 -52t-53 -22t-53.5 22t-22.5 52q0 31 22.5 53t53.5 22z" />
    <glyph glyph-name="uni1EAD" unicode="&#x1ead;" horiz-adv-x="611" 
d="M303 629l-55 -75h-109l113 147h100l118 -147h-110l-55 75h-2zM431 488h112v-488h-107v65h-2q-54 -73 -155 -73q-103 0 -169.5 69t-66.5 181q0 110 67 181.5t168 71.5q96 0 151 -66h2v59zM297 94q58 0 98.5 41t40.5 106t-39.5 109t-99.5 44t-100 -42t-40 -111
q0 -65 39 -106t101 -41zM294 -97q31 0 53 -22t22 -53q0 -30 -22 -52t-53 -22t-53.5 22t-22.5 52q0 31 22.5 53t53.5 22z" />
    <glyph glyph-name="uni1EAE" unicode="&#x1eae;" horiz-adv-x="697" 
d="M523 950l-134 -101h-89l105 100zM349 743q-61 0 -103.5 31t-57.5 86h77q16 -53 84 -53t84 53h77q-15 -55 -57.5 -86t-103.5 -31zM548 0l-54 153h-290l-53 -153h-126l265 710h118l266 -710h-126zM241 257h217l-108 308h-2z" />
    <glyph glyph-name="uni1EAF" unicode="&#x1eaf;" horiz-adv-x="611" 
d="M463 857l-124 -145h-114l115 144zM303 551q-63 0 -107 38.5t-49 107.5h88q2 -30 20 -49t48 -19q29 0 48 18.5t20 49.5h88q-5 -65 -47.5 -105.5t-108.5 -40.5zM431 488h112v-488h-107v65h-2q-54 -73 -155 -73q-103 0 -169.5 69t-66.5 181q0 110 67 181.5t168 71.5
q96 0 151 -66h2v59zM297 94q58 0 98.5 41t40.5 106t-39.5 109t-99.5 44t-100 -42t-40 -111q0 -65 39 -106t101 -41z" />
    <glyph glyph-name="uni1EB0" unicode="&#x1eb0;" horiz-adv-x="697" 
d="M398 849h-89l-134 101l118 -1zM265 860q16 -53 84 -53t84 53h77q-15 -55 -57.5 -86t-103.5 -31t-103.5 31t-57.5 86h77zM548 0l-54 153h-290l-53 -153h-126l265 710h118l266 -710h-126zM241 257h217l-108 308h-2z" />
    <glyph glyph-name="uni1EB1" unicode="&#x1eb1;" horiz-adv-x="611" 
d="M359 712h-114l-124 145l123 -1zM306 629q29 0 47.5 18.5t20.5 49.5h88q-5 -65 -47.5 -105.5t-108.5 -40.5q-63 0 -107 38.5t-49 107.5h88q2 -30 20 -49t48 -19zM431 488h112v-488h-107v65h-2q-54 -73 -155 -73q-103 0 -169.5 69t-66.5 181q0 110 67 181.5t168 71.5
q96 0 151 -66h2v59zM297 94q58 0 98.5 41t40.5 106t-39.5 109t-99.5 44t-100 -42t-40 -111q0 -65 39 -106t101 -41z" />
    <glyph glyph-name="uni1EB2" unicode="&#x1eb2;" horiz-adv-x="697" 
d="M348 917q-36 0 -63 -27l-40 37q17 19 47.5 31t61.5 12q39 0 61 -19.5t22 -49.5q0 -50 -73 -67l-8 -13h-25q-22 0 -22 17q0 14 32.5 31.5t32.5 30.5q0 17 -26 17zM349 743q-61 0 -103.5 31t-57.5 86h77q16 -53 84 -53t84 53h77q-15 -55 -57.5 -86t-103.5 -31zM548 0
l-54 153h-290l-53 -153h-126l265 710h118l266 -710h-126zM241 257h217l-108 308h-2z" />
    <glyph glyph-name="uni1EB3" unicode="&#x1eb3;" horiz-adv-x="611" 
d="M309 819q-42 0 -71 -31l-45 42q20 21 54 34.5t69 13.5q47 0 73 -21.5t26 -56.5q0 -62 -89 -80l-8 -26h-44q-20 18 -20 30q0 16 42 37t42 38q0 20 -29 20zM305 551q-63 0 -107 38.5t-49 107.5h88q2 -30 20 -49t48 -19q29 0 48 18.5t20 49.5h88q-5 -65 -47.5 -105.5
t-108.5 -40.5zM431 488h112v-488h-107v65h-2q-54 -73 -155 -73q-103 0 -169.5 69t-66.5 181q0 110 67 181.5t168 71.5q96 0 151 -66h2v59zM297 94q58 0 98.5 41t40.5 106t-39.5 109t-99.5 44t-100 -42t-40 -111q0 -65 39 -106t101 -41z" />
    <glyph glyph-name="uni1EB4" unicode="&#x1eb4;" horiz-adv-x="697" 
d="M291 912q-20 0 -40 -35l-57 20q12 34 35.5 54.5t51.5 20.5q29 0 75 -23q26 -13 41 -13q31 0 49 35l56 -15q-12 -38 -36.5 -59.5t-56.5 -21.5q-24 0 -68 20q-32 17 -50 17zM349 743q-61 0 -103.5 31t-57.5 86h77q16 -53 84 -53t84 53h77q-15 -55 -57.5 -86t-103.5 -31z
M548 0l-54 153h-290l-53 -153h-126l265 710h118l266 -710h-126zM241 257h217l-108 308h-2z" />
    <glyph glyph-name="uni1EB5" unicode="&#x1eb5;" horiz-adv-x="611" 
d="M245 768q-27 0 -48 -52l-68 31q15 50 42.5 80t61.5 30q6 0 12 -0.5t11.5 -1.5t9.5 -2t9 -3t7.5 -3.5t8 -4.5t7 -4t7.5 -4.5t7 -4.5q40 -25 58 -25q36 0 57 52l68 -23q-15 -56 -44 -87.5t-67 -31.5q-37 0 -88 32q-3 2 -10 6.5t-10 6.5t-8.5 4.5t-11 3.5t-11.5 1zM304 629
q29 0 47.5 18.5t20.5 49.5h88q-5 -65 -47.5 -105.5t-108.5 -40.5q-63 0 -107 38.5t-49 107.5h88q2 -30 20 -49t48 -19zM431 488h112v-488h-107v65h-2q-54 -73 -155 -73q-103 0 -169.5 69t-66.5 181q0 110 67 181.5t168 71.5q96 0 151 -66h2v59zM297 94q58 0 98.5 41
t40.5 106t-39.5 109t-99.5 44t-100 -42t-40 -111q0 -65 39 -106t101 -41z" />
    <glyph glyph-name="uni1EB6" unicode="&#x1eb6;" horiz-adv-x="697" 
d="M349 782q-63 0 -107 38.5t-49 107.5h88q2 -30 20 -49t48 -19q29 0 48 18.5t20 49.5h88q-5 -65 -47.5 -105.5t-108.5 -40.5zM674 0h-126l-54 153h-290l-53 -153h-126l265 710h118zM241 257h217l-108 308h-2zM351 -97q31 0 53 -22t22 -53q0 -30 -22 -52t-53 -22t-53.5 22
t-22.5 52q0 31 22.5 53t53.5 22z" />
    <glyph glyph-name="uni1EB7" unicode="&#x1eb7;" horiz-adv-x="611" 
d="M305 551q-63 0 -107 38.5t-49 107.5h88q2 -30 20 -49t48 -19q29 0 48 18.5t20 49.5h88q-5 -65 -47.5 -105.5t-108.5 -40.5zM431 488h112v-488h-107v65h-2q-54 -73 -155 -73q-103 0 -169.5 69t-66.5 181q0 110 67 181.5t168 71.5q96 0 151 -66h2v59zM297 94q58 0 98.5 41
t40.5 106t-39.5 109t-99.5 44t-100 -42t-40 -111q0 -65 39 -106t101 -41zM294 -97q31 0 53 -22t22 -53q0 -30 -22 -52t-53 -22t-53.5 22t-22.5 52q0 31 22.5 53t53.5 22z" />
    <glyph glyph-name="uni1EB8" unicode="&#x1eb8;" 
d="M87 0v710h447v-108h-326v-196h263v-108h-263v-190h347v-108h-468zM327 -97q31 0 53 -22t22 -53q0 -30 -22 -52t-53 -22t-53.5 22t-22.5 52q0 31 22.5 53t53.5 22z" />
    <glyph glyph-name="uni1EB9" unicode="&#x1eb9;" horiz-adv-x="562" 
d="M519 250q0 -18 -3 -45h-356q11 -52 48 -81.5t91 -29.5q76 0 122 57l78 -67q-71 -92 -206 -92q-108 0 -178.5 69.5t-70.5 182.5q0 111 67.5 181t170.5 70q107 0 172 -68.5t65 -176.5zM288 394q-47 0 -80.5 -26t-45.5 -73h244q-11 46 -41 72.5t-77 26.5zM296 -97
q31 0 53 -22t22 -53q0 -30 -22 -52t-53 -22t-53.5 22t-22.5 52q0 31 22.5 53t53.5 22z" />
    <glyph glyph-name="uni1EBA" unicode="&#x1eba;" 
d="M289 764q-20 18 -20 30q0 16 42 37t42 38q0 20 -29 20q-42 0 -71 -31l-45 42q20 21 54 34.5t69 13.5q47 0 73 -21.5t26 -56.5q0 -62 -89 -80l-8 -26h-44zM87 0v710h447v-108h-326v-196h263v-108h-263v-190h347v-108h-468z" />
    <glyph glyph-name="uni1EBB" unicode="&#x1ebb;" horiz-adv-x="562" 
d="M295 658q-42 0 -71 -31l-45 42q20 21 54 34.5t69 13.5q47 0 73 -21.5t26 -56.5q0 -62 -89 -80l-8 -26h-44q-20 18 -20 30q0 16 42 37t42 38q0 20 -29 20zM519 250q0 -18 -3 -45h-356q11 -52 48 -81.5t91 -29.5q76 0 122 57l78 -67q-71 -92 -206 -92q-108 0 -178.5 69.5
t-70.5 182.5q0 111 67.5 181t170.5 70q107 0 172 -68.5t65 -176.5zM288 394q-47 0 -80.5 -26t-45.5 -73h244q-11 46 -41 72.5t-77 26.5z" />
    <glyph glyph-name="uni1EBC" unicode="&#x1ebc;" 
d="M399 784q-37 0 -88 32q-35 22 -56 22q-37 0 -58 -52l-68 31q34 110 114 110q40 0 84 -28q40 -25 58 -25q36 0 57 52l68 -23q-15 -56 -44 -87.5t-67 -31.5zM87 0v710h447v-108h-326v-196h263v-108h-263v-190h347v-108h-468z" />
    <glyph glyph-name="uni1EBD" unicode="&#x1ebd;" horiz-adv-x="562" 
d="M226 607q-37 0 -58 -52l-68 31q34 110 114 110q40 0 84 -28q40 -25 58 -25q36 0 57 52l68 -23q-15 -56 -44 -87.5t-67 -31.5q-37 0 -88 32q-35 22 -56 22zM519 250q0 -18 -3 -45h-356q11 -52 48 -81.5t91 -29.5q76 0 122 57l78 -67q-71 -92 -206 -92q-108 0 -178.5 69.5
t-70.5 182.5q0 111 67.5 181t170.5 70q107 0 172 -68.5t65 -176.5zM288 394q-47 0 -80.5 -26t-45.5 -73h244q-11 46 -41 72.5t-77 26.5z" />
    <glyph glyph-name="uni1EBE" unicode="&#x1ebe;" 
d="M700 954l-153 -145h-85l115 144zM318 845l-55 -75h-109l113 147h100l118 -147h-110l-55 75h-2zM208 298v-190h347v-108h-468v710h447v-108h-326v-196h263v-108h-263z" />
    <glyph glyph-name="uni1EBF" unicode="&#x1ebf;" horiz-adv-x="562" 
d="M644 789l-153 -145h-85l115 145h123zM290 629l-55 -75h-109l113 147h100l118 -147h-110l-55 75h-2zM282 495q107 0 172 -68.5t65 -176.5q0 -18 -3 -45h-356q11 -52 48 -81.5t91 -29.5q76 0 122 57l78 -67q-71 -92 -206 -92q-108 0 -178.5 69.5t-70.5 182.5
q0 111 67.5 181t170.5 70zM288 394q-47 0 -80.5 -26t-45.5 -73h244q-11 46 -41 72.5t-77 26.5z" />
    <glyph glyph-name="uni1EC0" unicode="&#x1ec0;" 
d="M603 809h-84l-124 145h123zM318 845l-55 -75h-109l113 147h100l118 -147h-110l-55 75h-2zM208 298v-190h347v-108h-468v710h447v-108h-326v-196h263v-108h-263z" />
    <glyph glyph-name="uni1EC1" unicode="&#x1ec1;" horiz-adv-x="562" 
d="M528 644h-85l-124 145h124zM290 629l-55 -75h-109l113 147h100l118 -147h-110l-55 75h-2zM282 495q107 0 172 -68.5t65 -176.5q0 -18 -3 -45h-356q11 -52 48 -81.5t91 -29.5q76 0 122 57l78 -67q-71 -92 -206 -92q-108 0 -178.5 69.5t-70.5 182.5q0 111 67.5 181
t170.5 70zM288 394q-47 0 -80.5 -26t-45.5 -73h244q-11 46 -41 72.5t-77 26.5z" />
    <glyph glyph-name="uni1EC2" unicode="&#x1ec2;" 
d="M544 962q44 0 69 -21.5t25 -56.5q0 -61 -84 -80l-8 -26h-44q-20 17 -20 31q0 13 20 24.5t39.5 23.5t19.5 26q0 20 -24 20q-42 0 -71 -31l-45 43q20 21 54 34t69 13zM318 845l-55 -75h-109l113 147h100l118 -147h-110l-55 75h-2zM208 298v-190h347v-108h-468v710h447v-108
h-326v-196h263v-108h-263z" />
    <glyph glyph-name="uni1EC3" unicode="&#x1ec3;" horiz-adv-x="562" 
d="M471 802q44 0 69.5 -22t25.5 -56q0 -62 -84 -81l-9 -25h-44q-19 16 -19 30q0 15 39.5 36.5t39.5 38.5q0 20 -25 20q-41 0 -71 -32l-45 43q21 21 55 34.5t68 13.5zM289 629l-55 -75h-109l113 147h100l118 -147h-110l-55 75h-2zM282 495q107 0 172 -68.5t65 -176.5
q0 -18 -3 -45h-356q11 -52 48 -81.5t91 -29.5q76 0 122 57l78 -67q-71 -92 -206 -92q-108 0 -178.5 69.5t-70.5 182.5q0 111 67.5 181t170.5 70zM288 394q-47 0 -80.5 -26t-45.5 -73h244q-11 46 -41 72.5t-77 26.5z" />
    <glyph glyph-name="uni1EC4" unicode="&#x1ec4;" 
d="M262 912q-20 0 -40 -35l-57 20q12 34 35.5 54.5t51.5 20.5q29 0 75 -23q26 -13 41 -13q32 0 49 35l56 -15q-12 -38 -36.5 -59.5t-56.5 -21.5q-24 0 -68 20q-32 17 -50 17zM316 805l-60 -68h-103l113 122h100l118 -122h-103l-61 68h-4zM208 108h347v-108h-468v710h447
v-108h-326v-196h263v-108h-263v-190z" />
    <glyph glyph-name="uni1EC5" unicode="&#x1ec5;" horiz-adv-x="562" 
d="M233 768q-27 0 -48 -52l-68 31q15 50 42.5 80t61.5 30q6 0 12 -0.5t11.5 -1.5t9.5 -2t9 -3t7.5 -3.5t8 -4.5t7 -4t7.5 -4.5t7 -4.5q40 -25 58 -25q36 0 57 52l68 -23q-15 -56 -44 -87.5t-67 -31.5q-37 0 -88 32q-3 2 -10 6.5t-10 6.5t-8.5 4.5t-11 3.5t-11.5 1zM239 701
h100l118 -147h-110l-55 75h-2l-55 -75h-109zM519 250q0 -18 -3 -45h-356q11 -52 48 -81.5t91 -29.5q76 0 122 57l78 -67q-71 -92 -206 -92q-108 0 -178.5 69.5t-70.5 182.5q0 111 67.5 181t170.5 70q107 0 172 -68.5t65 -176.5zM288 394q-47 0 -80.5 -26t-45.5 -73h244
q-11 46 -41 72.5t-77 26.5z" />
    <glyph glyph-name="uni1EC6" unicode="&#x1ec6;" 
d="M318 860l-55 -75h-109l113 147h100l118 -147h-110l-55 75h-2zM208 108h347v-108h-468v710h447v-108h-326v-196h263v-108h-263v-190zM327 -97q31 0 53 -22t22 -53q0 -30 -22 -52t-53 -22t-53.5 22t-22.5 52q0 31 22.5 53t53.5 22z" />
    <glyph glyph-name="uni1EC7" unicode="&#x1ec7;" horiz-adv-x="562" 
d="M289 629l-55 -75h-109l113 147h100l118 -147h-110l-55 75h-2zM519 250q0 -18 -3 -45h-356q11 -52 48 -81.5t91 -29.5q76 0 122 57l78 -67q-71 -92 -206 -92q-108 0 -178.5 69.5t-70.5 182.5q0 111 67.5 181t170.5 70q107 0 172 -68.5t65 -176.5zM288 394q-47 0 -80.5 -26
t-45.5 -73h244q-11 46 -41 72.5t-77 26.5zM296 -97q31 0 53 -22t22 -53q0 -30 -22 -52t-53 -22t-53.5 22t-22.5 52q0 31 22.5 53t53.5 22z" />
    <glyph glyph-name="uni1EC8" unicode="&#x1ec8;" horiz-adv-x="304" 
d="M119 764q-20 18 -20 30q0 16 42 37t42 38q0 20 -29 20q-42 0 -71 -31l-45 42q20 21 54 34.5t69 13.5q47 0 73 -21.5t26 -56.5q0 -62 -89 -80l-8 -26h-44zM91 0v710h121v-710h-121z" />
    <glyph glyph-name="uni1EC9" unicode="&#x1ec9;" horiz-adv-x="272" 
d="M105 533q-20 18 -20 30q0 16 42 37t42 38q0 20 -29 20q-42 0 -71 -31l-45 42q20 21 54 34.5t69 13.5q47 0 73 -21.5t26 -56.5q0 -62 -89 -80l-8 -26h-44zM80 0v488h112v-488h-112z" />
    <glyph glyph-name="uni1ECA" unicode="&#x1eca;" horiz-adv-x="304" 
d="M91 0v710h121v-710h-121zM154 -97q31 0 53 -22t22 -53q0 -30 -22 -52t-53 -22t-53.5 22t-22.5 52q0 31 22.5 53t53.5 22z" />
    <glyph glyph-name="uni1ECB" unicode="&#x1ecb;" horiz-adv-x="272" 
d="M136 560q-31 0 -53 22t-22 53q0 30 22 52t53 22t53.5 -22t22.5 -52q0 -31 -22.5 -53t-53.5 -22zM80 0v488h112v-488h-112zM136 -97q31 0 53 -22t22 -53q0 -30 -22 -52t-53 -22t-53.5 22t-22.5 52q0 31 22.5 53t53.5 22z" />
    <glyph glyph-name="uni1ECC" unicode="&#x1ecc;" horiz-adv-x="827" 
d="M414 -8q-159 0 -259 102.5t-100 260.5t100 260.5t259 102.5q155 0 256.5 -101t101.5 -262t-101.5 -262t-256.5 -101zM414 105q99 0 165.5 71t66.5 179q0 109 -66.5 179.5t-165.5 70.5q-103 0 -168.5 -72t-65.5 -178t65.5 -178t168.5 -72zM414 -97q31 0 53 -22t22 -53
q0 -30 -22 -52t-53 -22t-53.5 22t-22.5 52q0 31 22.5 53t53.5 22z" />
    <glyph glyph-name="uni1ECD" unicode="&#x1ecd;" horiz-adv-x="600" 
d="M300 -8q-114 0 -185 71t-71 180t71 180.5t185 71.5q113 0 184.5 -70t71.5 -182q0 -111 -71.5 -181t-184.5 -70zM300 94q60 0 101 42t41 107q0 67 -40.5 109t-101.5 42q-63 0 -102.5 -43t-39.5 -108q0 -63 40 -106t102 -43zM300 -97q31 0 53 -22t22 -53q0 -30 -22 -52
t-53 -22t-53.5 22t-22.5 52q0 31 22.5 53t53.5 22z" />
    <glyph glyph-name="uni1ECE" unicode="&#x1ece;" horiz-adv-x="827" 
d="M384 764q-20 18 -20 30q0 16 42 37t42 38q0 20 -29 20q-42 0 -71 -31l-45 42q20 21 54 34.5t69 13.5q47 0 73 -21.5t26 -56.5q0 -62 -89 -80l-8 -26h-44zM414 -8q-159 0 -259 102.5t-100 260.5t100 260.5t259 102.5q155 0 256.5 -101t101.5 -262t-101.5 -262t-256.5 -101
zM414 105q99 0 165.5 71t66.5 179q0 109 -66.5 179.5t-165.5 70.5q-103 0 -168.5 -72t-65.5 -178t65.5 -178t168.5 -72z" />
    <glyph glyph-name="uni1ECF" unicode="&#x1ecf;" horiz-adv-x="600" 
d="M269 533q-20 18 -20 30q0 16 42 37t42 38q0 20 -29 20q-42 0 -71 -31l-45 42q20 21 54 34.5t69 13.5q47 0 73 -21.5t26 -56.5q0 -62 -89 -80l-8 -26h-44zM300 -8q-114 0 -185 71t-71 180t71 180.5t185 71.5q113 0 184.5 -70t71.5 -182q0 -111 -71.5 -181t-184.5 -70z
M300 94q60 0 101 42t41 107q0 67 -40.5 109t-101.5 42q-63 0 -102.5 -43t-39.5 -108q0 -63 40 -106t102 -43z" />
    <glyph glyph-name="uni1ED0" unicode="&#x1ed0;" horiz-adv-x="827" 
d="M795 954l-153 -145h-85l115 144zM413 845l-55 -75h-109l113 147h100l118 -147h-110l-55 75h-2zM414 718q155 0 256.5 -101t101.5 -262t-101.5 -262t-256.5 -101q-159 0 -259 102.5t-100 260.5t100 260.5t259 102.5zM414 105q99 0 165.5 71t66.5 179q0 109 -66.5 179.5
t-165.5 70.5q-103 0 -168.5 -72t-65.5 -178t65.5 -178t168.5 -72z" />
    <glyph glyph-name="uni1ED1" unicode="&#x1ed1;" horiz-adv-x="600" 
d="M653 789l-153 -145h-85l115 145h123zM299 629l-55 -75h-109l113 147h100l118 -147h-110l-55 75h-2zM300 495q113 0 184.5 -70t71.5 -182q0 -111 -71.5 -181t-184.5 -70q-114 0 -185 71t-71 180t71 180.5t185 71.5zM300 94q60 0 101 42t41 107q0 67 -40.5 109t-101.5 42
q-63 0 -102.5 -43t-39.5 -108q0 -63 40 -106t102 -43z" />
    <glyph glyph-name="uni1ED2" unicode="&#x1ed2;" horiz-adv-x="827" 
d="M698 809h-84l-124 145h123zM413 845l-55 -75h-109l113 147h100l118 -147h-110l-55 75h-2zM414 718q155 0 256.5 -101t101.5 -262t-101.5 -262t-256.5 -101q-159 0 -259 102.5t-100 260.5t100 260.5t259 102.5zM414 105q99 0 165.5 71t66.5 179q0 109 -66.5 179.5
t-165.5 70.5q-103 0 -168.5 -72t-65.5 -178t65.5 -178t168.5 -72z" />
    <glyph glyph-name="uni1ED3" unicode="&#x1ed3;" horiz-adv-x="600" 
d="M537 644h-85l-124 145h124zM299 629l-55 -75h-109l113 147h100l118 -147h-110l-55 75h-2zM300 495q113 0 184.5 -70t71.5 -182q0 -111 -71.5 -181t-184.5 -70q-114 0 -185 71t-71 180t71 180.5t185 71.5zM300 94q60 0 101 42t41 107q0 67 -40.5 109t-101.5 42
q-63 0 -102.5 -43t-39.5 -108q0 -63 40 -106t102 -43z" />
    <glyph glyph-name="uni1ED4" unicode="&#x1ed4;" horiz-adv-x="827" 
d="M632 903q-42 0 -71 -31l-45 43q20 21 54 34t69 13q44 0 69 -21.5t25 -56.5q0 -61 -84 -80l-8 -26h-44q-20 17 -20 31q0 13 19.5 24.5t39.5 23.5t20 26q0 20 -24 20zM413 845l-55 -75h-109l113 147h100l118 -147h-110l-55 75h-2zM414 718q155 0 256.5 -101t101.5 -262
t-101.5 -262t-256.5 -101q-159 0 -259 102.5t-100 260.5t100 260.5t259 102.5zM414 105q99 0 165.5 71t66.5 179q0 109 -66.5 179.5t-165.5 70.5q-103 0 -168.5 -72t-65.5 -178t65.5 -178t168.5 -72z" />
    <glyph glyph-name="uni1ED5" unicode="&#x1ed5;" horiz-adv-x="600" 
d="M473 743q-41 0 -71 -32l-45 43q21 21 55 34.5t68 13.5q44 0 69.5 -22t25.5 -56q0 -62 -84 -81l-9 -25h-44q-19 16 -19 30q0 15 39.5 36.5t39.5 38.5q0 20 -25 20zM298 629l-55 -75h-109l113 147h100l118 -147h-110l-55 75h-2zM300 495q113 0 184.5 -70t71.5 -182
q0 -111 -71.5 -181t-184.5 -70q-114 0 -185 71t-71 180t71 180.5t185 71.5zM300 94q60 0 101 42t41 107q0 67 -40.5 109t-101.5 42q-63 0 -102.5 -43t-39.5 -108q0 -63 40 -106t102 -43z" />
    <glyph glyph-name="uni1ED6" unicode="&#x1ed6;" horiz-adv-x="827" 
d="M357 912q-20 0 -40 -35l-57 20q12 34 35.5 54.5t51.5 20.5q29 0 75 -23q26 -13 41 -13q31 0 49 35l56 -15q-12 -38 -36.5 -59.5t-56.5 -21.5q-24 0 -68 20q-32 17 -50 17zM411 805l-60 -68h-103l113 122h100l118 -122h-103l-61 68h-4zM414 718q155 0 256.5 -101
t101.5 -262t-101.5 -262t-256.5 -101q-159 0 -259 102.5t-100 260.5t100 260.5t259 102.5zM414 105q99 0 165.5 71t66.5 179q0 109 -66.5 179.5t-165.5 70.5q-103 0 -168.5 -72t-65.5 -178t65.5 -178t168.5 -72z" />
    <glyph glyph-name="uni1ED7" unicode="&#x1ed7;" horiz-adv-x="600" 
d="M242 768q-27 0 -48 -52l-68 31q15 50 42.5 80t61.5 30q6 0 12 -0.5t11.5 -1.5t9.5 -2t9 -3t7.5 -3.5t8 -4.5t7 -4t7.5 -4.5t7 -4.5q40 -25 58 -25q36 0 57 52l68 -23q-15 -56 -44 -87.5t-67 -31.5q-37 0 -88 32q-3 2 -10 6.5t-10 6.5t-8.5 4.5t-11 3.5t-11.5 1zM248 701
h100l118 -147h-110l-55 75h-2l-55 -75h-109zM300 495q113 0 184.5 -70t71.5 -182q0 -111 -71.5 -181t-184.5 -70q-114 0 -185 71t-71 180t71 180.5t185 71.5zM300 94q60 0 101 42t41 107q0 67 -40.5 109t-101.5 42q-63 0 -102.5 -43t-39.5 -108q0 -63 40 -106t102 -43z" />
    <glyph glyph-name="uni1ED8" unicode="&#x1ed8;" horiz-adv-x="827" 
d="M413 860l-55 -75h-109l113 147h100l118 -147h-110l-55 75h-2zM414 718q155 0 256.5 -101t101.5 -262t-101.5 -262t-256.5 -101q-159 0 -259 102.5t-100 260.5t100 260.5t259 102.5zM414 105q99 0 165.5 71t66.5 179q0 109 -66.5 179.5t-165.5 70.5q-103 0 -168.5 -72
t-65.5 -178t65.5 -178t168.5 -72zM414 -97q31 0 53 -22t22 -53q0 -30 -22 -52t-53 -22t-53.5 22t-22.5 52q0 31 22.5 53t53.5 22z" />
    <glyph glyph-name="uni1ED9" unicode="&#x1ed9;" horiz-adv-x="600" 
d="M298 629l-55 -75h-109l113 147h100l118 -147h-110l-55 75h-2zM300 495q113 0 184.5 -70t71.5 -182q0 -111 -71.5 -181t-184.5 -70q-114 0 -185 71t-71 180t71 180.5t185 71.5zM300 94q60 0 101 42t41 107q0 67 -40.5 109t-101.5 42q-63 0 -102.5 -43t-39.5 -108
q0 -63 40 -106t102 -43zM300 -97q31 0 53 -22t22 -53q0 -30 -22 -52t-53 -22t-53.5 22t-22.5 52q0 31 22.5 53t53.5 22z" />
    <glyph glyph-name="uni1EDA" unicode="&#x1eda;" horiz-adv-x="870" 
d="M600 932l-124 -145h-114l115 144zM732 774h114v-71q0 -142 -110 -180q36 -77 36 -168q0 -161 -101.5 -262t-256.5 -101q-159 0 -259 102.5t-100 260.5t100 260.5t259 102.5q176 0 279 -125q14 7 22.5 17.5t12 29.5t4 31t0.5 39v64zM414 105q99 0 165.5 71t66.5 179
q0 109 -66.5 179.5t-165.5 70.5q-103 0 -168.5 -72t-65.5 -178t65.5 -178t168.5 -72z" />
    <glyph glyph-name="uni1EDB" unicode="&#x1edb;" horiz-adv-x="681" 
d="M478 701l-124 -145h-114l115 144zM555 565h114v-71q0 -71 -30.5 -119t-88.5 -64l-1 -2q7 -37 7 -66q0 -111 -71.5 -181t-184.5 -70q-114 0 -185 71t-71 180t71 180.5t185 71.5q71 0 127.5 -29.5t89.5 -81.5q18 9 27 29.5t10 36.5t1 51v64zM300 94q60 0 101 42t41 107
q0 67 -40.5 109t-101.5 42q-63 0 -102.5 -43t-39.5 -108q0 -63 40 -106t102 -43z" />
    <glyph glyph-name="uni1EDC" unicode="&#x1edc;" horiz-adv-x="870" 
d="M471 787h-114l-124 145l123 -1zM732 774h114v-71q0 -142 -110 -180q36 -77 36 -168q0 -161 -101.5 -262t-256.5 -101q-159 0 -259 102.5t-100 260.5t100 260.5t259 102.5q176 0 279 -125q14 7 22.5 17.5t12 29.5t4 31t0.5 39v64zM414 105q99 0 165.5 71t66.5 179
q0 109 -66.5 179.5t-165.5 70.5q-103 0 -168.5 -72t-65.5 -178t65.5 -178t168.5 -72z" />
    <glyph glyph-name="uni1EDD" unicode="&#x1edd;" horiz-adv-x="681" 
d="M370 556h-114l-124 145l123 -1zM555 565h114v-71q0 -71 -30.5 -119t-88.5 -64l-1 -2q7 -37 7 -66q0 -111 -71.5 -181t-184.5 -70q-114 0 -185 71t-71 180t71 180.5t185 71.5q71 0 127.5 -29.5t89.5 -81.5q18 9 27 29.5t10 36.5t1 51v64zM300 94q60 0 101 42t41 107
q0 67 -40.5 109t-101.5 42q-63 0 -102.5 -43t-39.5 -108q0 -63 40 -106t102 -43z" />
    <glyph glyph-name="uni1EDE" unicode="&#x1ede;" horiz-adv-x="870" 
d="M419 889q-42 0 -71 -31l-45 42q20 21 54 34.5t69 13.5q47 0 73 -21.5t26 -56.5q0 -62 -89 -80l-8 -26h-44q-20 18 -20 30q0 16 42 37t42 38q0 20 -29 20zM732 774h114v-71q0 -142 -110 -180q36 -77 36 -168q0 -161 -101.5 -262t-256.5 -101q-159 0 -259 102.5t-100 260.5
t100 260.5t259 102.5q176 0 279 -125q14 7 22.5 17.5t12 29.5t4 31t0.5 39v64zM414 105q99 0 165.5 71t66.5 179q0 109 -66.5 179.5t-165.5 70.5q-103 0 -168.5 -72t-65.5 -178t65.5 -178t168.5 -72z" />
    <glyph glyph-name="uni1EDF" unicode="&#x1edf;" horiz-adv-x="681" 
d="M304 658q-42 0 -71 -31l-45 42q20 21 54 34.5t69 13.5q47 0 73 -21.5t26 -56.5q0 -62 -89 -80l-8 -26h-44q-20 18 -20 30q0 16 42 37t42 38q0 20 -29 20zM555 565h114v-71q0 -71 -30.5 -119t-88.5 -64l-1 -2q7 -37 7 -66q0 -111 -71.5 -181t-184.5 -70q-114 0 -185 71
t-71 180t71 180.5t185 71.5q71 0 127.5 -29.5t89.5 -81.5q18 9 27 29.5t10 36.5t1 51v64zM300 94q60 0 101 42t41 107q0 67 -40.5 109t-101.5 42q-63 0 -102.5 -43t-39.5 -108q0 -63 40 -106t102 -43z" />
    <glyph glyph-name="uni1EE0" unicode="&#x1ee0;" horiz-adv-x="870" 
d="M350 838q-37 0 -58 -52l-68 31q34 110 114 110q40 0 84 -28q40 -25 58 -25q36 0 57 52l68 -23q-15 -56 -44 -87.5t-67 -31.5q-37 0 -88 32q-35 22 -56 22zM732 774h114v-71q0 -142 -110 -180q36 -77 36 -168q0 -161 -101.5 -262t-256.5 -101q-159 0 -259 102.5
t-100 260.5t100 260.5t259 102.5q176 0 279 -125q14 7 22.5 17.5t12 29.5t4 31t0.5 39v64zM414 105q99 0 165.5 71t66.5 179q0 109 -66.5 179.5t-165.5 70.5q-103 0 -168.5 -72t-65.5 -178t65.5 -178t168.5 -72z" />
    <glyph glyph-name="uni1EE1" unicode="&#x1ee1;" horiz-adv-x="681" 
d="M235 607q-37 0 -58 -52l-68 31q34 110 114 110q40 0 84 -28q40 -25 58 -25q36 0 57 52l68 -23q-15 -56 -44 -87.5t-67 -31.5q-37 0 -88 32q-35 22 -56 22zM555 565h114v-71q0 -71 -30.5 -119t-88.5 -64l-1 -2q7 -37 7 -66q0 -111 -71.5 -181t-184.5 -70q-114 0 -185 71
t-71 180t71 180.5t185 71.5q71 0 127.5 -29.5t89.5 -81.5q18 9 27 29.5t10 36.5t1 51v64zM300 94q60 0 101 42t41 107q0 67 -40.5 109t-101.5 42q-63 0 -102.5 -43t-39.5 -108q0 -63 40 -106t102 -43z" />
    <glyph glyph-name="uni1EE2" unicode="&#x1ee2;" horiz-adv-x="870" 
d="M732 774h114v-71q0 -142 -110 -180q36 -77 36 -168q0 -161 -101.5 -262t-256.5 -101q-159 0 -259 102.5t-100 260.5t100 260.5t259 102.5q176 0 279 -125q14 7 22.5 17.5t12 29.5t4 31t0.5 39v64zM414 105q99 0 165.5 71t66.5 179q0 109 -66.5 179.5t-165.5 70.5
q-103 0 -168.5 -72t-65.5 -178t65.5 -178t168.5 -72zM414 -97q31 0 53 -22t22 -53q0 -30 -22 -52t-53 -22t-53.5 22t-22.5 52q0 31 22.5 53t53.5 22z" />
    <glyph glyph-name="uni1EE3" unicode="&#x1ee3;" horiz-adv-x="681" 
d="M555 565h114v-71q0 -71 -30.5 -119t-88.5 -64l-1 -2q7 -37 7 -66q0 -111 -71.5 -181t-184.5 -70q-114 0 -185 71t-71 180t71 180.5t185 71.5q71 0 127.5 -29.5t89.5 -81.5q18 9 27 29.5t10 36.5t1 51v64zM300 94q60 0 101 42t41 107q0 67 -40.5 109t-101.5 42
q-63 0 -102.5 -43t-39.5 -108q0 -63 40 -106t102 -43zM300 -97q31 0 53 -22t22 -53q0 -30 -22 -52t-53 -22t-53.5 22t-22.5 52q0 31 22.5 53t53.5 22z" />
    <glyph glyph-name="uni1EE4" unicode="&#x1ee4;" horiz-adv-x="719" 
d="M359 -8q-128 0 -205 79.5t-77 220.5v418h120v-409q0 -87 43.5 -141t118.5 -54q73 0 118 52.5t45 142.5v409h121v-418q0 -139 -76 -219.5t-208 -80.5zM359 -97q31 0 53 -22t22 -53q0 -30 -22 -52t-53 -22t-53.5 22t-22.5 52q0 31 22.5 53t53.5 22z" />
    <glyph glyph-name="uni1EE5" unicode="&#x1ee5;" horiz-adv-x="578" 
d="M397 488h112v-488h-112v64q-60 -72 -151 -72q-183 0 -183 199v297h112v-267q0 -71 22.5 -99t74.5 -28t88.5 42.5t36.5 117.5v234zM292 -97q31 0 53 -22t22 -53q0 -30 -22 -52t-53 -22t-53.5 22t-22.5 52q0 31 22.5 53t53.5 22z" />
    <glyph glyph-name="uni1EE6" unicode="&#x1ee6;" horiz-adv-x="719" 
d="M328 764q-20 18 -20 30q0 16 42 37t42 38q0 20 -29 20q-42 0 -71 -31l-45 42q20 21 54 34.5t69 13.5q47 0 73 -21.5t26 -56.5q0 -62 -89 -80l-8 -26h-44zM359 -8q-128 0 -205 79.5t-77 220.5v418h120v-409q0 -87 43.5 -141t118.5 -54q73 0 118 52.5t45 142.5v409h121
v-418q0 -139 -76 -219.5t-208 -80.5z" />
    <glyph glyph-name="uni1EE7" unicode="&#x1ee7;" horiz-adv-x="578" 
d="M291 658q-42 0 -71 -31l-45 42q20 21 54 34.5t69 13.5q47 0 73 -21.5t26 -56.5q0 -62 -89 -80l-8 -26h-44q-20 18 -20 30q0 16 42 37t42 38q0 20 -29 20zM397 488h112v-488h-112v64q-60 -72 -151 -72q-183 0 -183 199v297h112v-267q0 -71 22.5 -99t74.5 -28t88.5 42.5
t36.5 117.5v234z" />
    <glyph glyph-name="uni1EE8" unicode="&#x1ee8;" horiz-adv-x="819" 
d="M520 932l-124 -145h-114l115 144zM703 774h114v-71q0 -86 -45 -137.5t-129 -53.5v-220q0 -139 -76 -219.5t-208 -80.5q-128 0 -205 79.5t-77 220.5v418h120v-409q0 -87 43.5 -141t118.5 -54q73 0 118 52.5t45 142.5v409h121v-124q22 5 35 15t18 30.5t6 33.5t1 45v64z" />
    <glyph glyph-name="uni1EE9" unicode="&#x1ee9;" horiz-adv-x="687" 
d="M467 701l-124 -145h-114l115 144zM562 565h114v-71q0 -85 -43 -136t-124 -55v-303h-112v64q-60 -72 -151 -72q-183 0 -183 199v297h112v-267q0 -71 22.5 -99t74.5 -28t88.5 42.5t36.5 117.5v234h112v-110q13 4 23 10t15.5 17t8.5 18t4.5 24.5t1.5 24.5v29v64z" />
    <glyph glyph-name="uni1EEA" unicode="&#x1eea;" horiz-adv-x="819" 
d="M436 787h-114l-124 145l123 -1zM703 774h114v-71q0 -86 -45 -137.5t-129 -53.5v-220q0 -139 -76 -219.5t-208 -80.5q-128 0 -205 79.5t-77 220.5v418h120v-409q0 -87 43.5 -141t118.5 -54q73 0 118 52.5t45 142.5v409h121v-124q22 5 35 15t18 30.5t6 33.5t1 45v64z" />
    <glyph glyph-name="uni1EEB" unicode="&#x1eeb;" horiz-adv-x="687" 
d="M368 556h-114l-124 145l123 -1zM562 565h114v-71q0 -85 -43 -136t-124 -55v-303h-112v64q-60 -72 -151 -72q-183 0 -183 199v297h112v-267q0 -71 22.5 -99t74.5 -28t88.5 42.5t36.5 117.5v234h112v-110q13 4 23 10t15.5 17t8.5 18t4.5 24.5t1.5 24.5v29v64z" />
    <glyph glyph-name="uni1EEC" unicode="&#x1eec;" horiz-adv-x="819" 
d="M363 889q-42 0 -71 -31l-45 42q20 21 54 34.5t69 13.5q47 0 73 -21.5t26 -56.5q0 -62 -89 -80l-8 -26h-44q-20 18 -20 30q0 16 42 37t42 38q0 20 -29 20zM703 774h114v-71q0 -86 -45 -137.5t-129 -53.5v-220q0 -139 -76 -219.5t-208 -80.5q-128 0 -205 79.5t-77 220.5
v418h120v-409q0 -87 43.5 -141t118.5 -54q73 0 118 52.5t45 142.5v409h121v-124q22 5 35 15t18 30.5t6 33.5t1 45v64z" />
    <glyph glyph-name="uni1EED" unicode="&#x1eed;" horiz-adv-x="687" 
d="M291 658q-42 0 -71 -31l-45 42q20 21 54 34.5t69 13.5q47 0 73 -21.5t26 -56.5q0 -62 -89 -80l-8 -26h-44q-20 18 -20 30q0 16 42 37t42 38q0 20 -29 20zM562 565h114v-71q0 -85 -43 -136t-124 -55v-303h-112v64q-60 -72 -151 -72q-183 0 -183 199v297h112v-267
q0 -71 22.5 -99t74.5 -28t88.5 42.5t36.5 117.5v234h112v-110q13 4 23 10t15.5 17t8.5 18t4.5 24.5t1.5 24.5v29v64z" />
    <glyph glyph-name="uni1EEE" unicode="&#x1eee;" horiz-adv-x="819" 
d="M294 838q-37 0 -58 -52l-68 31q34 110 114 110q40 0 84 -28q40 -25 58 -25q36 0 57 52l68 -23q-15 -56 -44 -87.5t-67 -31.5q-37 0 -88 32q-35 22 -56 22zM703 774h114v-71q0 -86 -45 -137.5t-129 -53.5v-220q0 -139 -76 -219.5t-208 -80.5q-128 0 -205 79.5t-77 220.5
v418h120v-409q0 -87 43.5 -141t118.5 -54q73 0 118 52.5t45 142.5v409h121v-124q22 5 35 15t18 30.5t6 33.5t1 45v64z" />
    <glyph glyph-name="uni1EEF" unicode="&#x1eef;" horiz-adv-x="687" 
d="M222 607q-37 0 -58 -52l-68 31q34 110 114 110q40 0 84 -28q40 -25 58 -25q36 0 57 52l68 -23q-15 -56 -44 -87.5t-67 -31.5q-37 0 -88 32q-35 22 -56 22zM562 565h114v-71q0 -85 -43 -136t-124 -55v-303h-112v64q-60 -72 -151 -72q-183 0 -183 199v297h112v-267
q0 -71 22.5 -99t74.5 -28t88.5 42.5t36.5 117.5v234h112v-110q13 4 23 10t15.5 17t8.5 18t4.5 24.5t1.5 24.5v29v64z" />
    <glyph glyph-name="uni1EF0" unicode="&#x1ef0;" horiz-adv-x="819" 
d="M703 774h114v-71q0 -86 -45 -137.5t-129 -53.5v-220q0 -139 -76 -219.5t-208 -80.5q-128 0 -205 79.5t-77 220.5v418h120v-409q0 -87 43.5 -141t118.5 -54q73 0 118 52.5t45 142.5v409h121v-124q22 5 35 15t18 30.5t6 33.5t1 45v64zM359 -97q31 0 53 -22t22 -53
q0 -30 -22 -52t-53 -22t-53.5 22t-22.5 52q0 31 22.5 53t53.5 22z" />
    <glyph glyph-name="uni1EF1" unicode="&#x1ef1;" horiz-adv-x="687" 
d="M562 565h114v-71q0 -85 -43 -136t-124 -55v-303h-112v64q-60 -72 -151 -72q-183 0 -183 199v297h112v-267q0 -71 22.5 -99t74.5 -28t88.5 42.5t36.5 117.5v234h112v-110q13 4 23 10t15.5 17t8.5 18t4.5 24.5t1.5 24.5v29v64zM292 -97q31 0 53 -22t22 -53q0 -30 -22 -52
t-53 -22t-53.5 22t-22.5 52q0 31 22.5 53t53.5 22z" />
    <glyph glyph-name="Ygrave" unicode="&#x1ef2;" horiz-adv-x="625" 
d="M378 787h-114l-124 145l123 -1zM471 710h140l-239 -396v-314h-121v314l-237 396h138l159 -275h2z" />
    <glyph glyph-name="ygrave" unicode="&#x1ef3;" horiz-adv-x="535" 
d="M341 556h-114l-124 145l123 -1zM398 488h117l-268 -686h-118l88 226l-198 460h118l135 -330z" />
    <glyph glyph-name="uni1EF4" unicode="&#x1ef4;" horiz-adv-x="625" 
d="M251 0v314l-237 396h138l159 -275h2l158 275h140l-239 -396v-314h-121zM312 -97q31 0 53 -22t22 -53q0 -30 -22 -52t-53 -22t-53.5 22t-22.5 52q0 31 22.5 53t53.5 22z" />
    <glyph glyph-name="uni1EF5" unicode="&#x1ef5;" horiz-adv-x="535" 
d="M398 488h117l-268 -686h-118l88 226l-198 460h118l135 -330zM403 -97q31 0 53 -22t22 -53q0 -30 -22 -52t-53 -22t-53.5 22t-22.5 52q0 31 22.5 53t53.5 22z" />
    <glyph glyph-name="uni1EF6" unicode="&#x1ef6;" horiz-adv-x="625" 
d="M318 889q-42 0 -71 -31l-45 42q20 21 54 34.5t69 13.5q47 0 73 -21.5t26 -56.5q0 -62 -89 -80l-8 -26h-44q-20 18 -20 30q0 16 42 37t42 38q0 20 -29 20zM471 710h140l-239 -396v-314h-121v314l-237 396h138l159 -275h2z" />
    <glyph glyph-name="uni1EF7" unicode="&#x1ef7;" horiz-adv-x="535" 
d="M272 658q-42 0 -71 -31l-45 42q20 21 54 34.5t69 13.5q47 0 73 -21.5t26 -56.5q0 -62 -89 -80l-8 -26h-44q-20 18 -20 30q0 16 42 37t42 38q0 20 -29 20zM398 488h117l-268 -686h-118l88 226l-198 460h118l135 -330z" />
    <glyph glyph-name="uni1EF8" unicode="&#x1ef8;" horiz-adv-x="625" 
d="M249 838q-37 0 -58 -52l-68 31q34 110 114 110q40 0 84 -28q40 -25 58 -25q36 0 57 52l68 -23q-15 -56 -44 -87.5t-67 -31.5q-37 0 -88 32q-35 22 -56 22zM471 710h140l-239 -396v-314h-121v314l-237 396h138l159 -275h2z" />
    <glyph glyph-name="uni1EF9" unicode="&#x1ef9;" horiz-adv-x="535" 
d="M203 607q-37 0 -58 -52l-68 31q34 110 114 110q40 0 84 -28q40 -25 58 -25q36 0 57 52l68 -23q-15 -56 -44 -87.5t-67 -31.5q-37 0 -88 32q-35 22 -56 22zM398 488h117l-268 -686h-118l88 226l-198 460h118l135 -330z" />
    <glyph glyph-name="uni2002" unicode="&#x2002;" horiz-adv-x="467" 
 />
    <glyph glyph-name="uni2003" unicode="&#x2003;" horiz-adv-x="934" 
 />
    <glyph glyph-name="uni2009" unicode="&#x2009;" horiz-adv-x="29" 
 />
    <glyph glyph-name="endash" unicode="&#x2013;" horiz-adv-x="573" 
d="M53 248v100h467v-100h-467z" />
    <glyph glyph-name="emdash" unicode="&#x2014;" horiz-adv-x="1040" 
d="M53 248v100h934v-100h-934z" />
    <glyph glyph-name="uni2015" unicode="&#x2015;" horiz-adv-x="1199" 
d="M53 248v100h1093v-100h-1093z" />
    <glyph glyph-name="quoteleft" unicode="&#x2018;" horiz-adv-x="215" 
d="M183 709l-31 -253h-120l60 253h91z" />
    <glyph glyph-name="quoteright" unicode="&#x2019;" horiz-adv-x="215" 
d="M32 457l31 253h120l-60 -253h-91z" />
    <glyph glyph-name="quotesinglbase" unicode="&#x201a;" horiz-adv-x="238" 
d="M27 -132l32 253h120l-70 -253h-82z" />
    <glyph glyph-name="quotedblleft" unicode="&#x201c;" horiz-adv-x="387" 
d="M183 710l-31 -253h-120l60 253h91zM355 710l-31 -253h-120l60 253h91z" />
    <glyph glyph-name="quotedblright" unicode="&#x201d;" horiz-adv-x="387" 
d="M32 457l31 253h120l-60 -253h-91zM204 457l31 253h120l-60 -253h-91z" />
    <glyph glyph-name="quotedblbase" unicode="&#x201e;" horiz-adv-x="411" 
d="M28 -78l31 253h120l-60 -253h-91zM200 -78l31 253h120l-60 -253h-91z" />
    <glyph glyph-name="dagger" unicode="&#x2020;" horiz-adv-x="400" 
d="M201 234l-34 58l4 129l-1 109h-19l-96 -5v68l96 -4h19l-3 97h69l-5 -97h19l96 5v-69l-96 5h-20v-109l6 -129z" />
    <glyph glyph-name="daggerdbl" unicode="&#x2021;" horiz-adv-x="400" 
d="M167 55l3 95h-19l-96 -4v68l95 -4h21v70l-4 92l4 92v66h-20l-96 -4v67l95 -5h20l-4 98h69l-5 -98h19l97 5v-67l-97 4h-19v-66l5 -92l-6 -92l1 -70h19l97 4v-67l-97 3h-19l5 -95h-68z" />
    <glyph glyph-name="bullet" unicode="&#x2022;" horiz-adv-x="426" 
d="M213 205q-47 0 -79.5 32.5t-32.5 78.5t32.5 79t79.5 33t80 -33t33 -79t-33 -78.5t-80 -32.5z" />
    <glyph glyph-name="ellipsis" unicode="&#x2026;" horiz-adv-x="1000" 
d="M167 -8q-32 0 -54 21.5t-22 52.5t22.5 53t53.5 22t53 -22t22 -53t-22 -52.5t-53 -21.5zM500 -8q-32 0 -54 21.5t-22 52.5t22.5 53t53.5 22t53 -22t22 -53t-22 -52.5t-53 -21.5zM834 -8q-32 0 -54 21.5t-22 52.5t22.5 53t53.5 22t53 -22t22 -53t-22 -52.5t-53 -21.5z" />
    <glyph glyph-name="perthousand" unicode="&#x2030;" horiz-adv-x="1473" 
d="M401 -22l-90 39l314 708l90 -39zM247 321q-85 0 -143.5 55.5t-58.5 143.5q0 83 56.5 140.5t145.5 57.5q84 0 142.5 -55.5t58.5 -142.5q0 -83 -56.5 -141t-144.5 -58zM247 406q48 0 77.5 32.5t29.5 80.5q0 50 -30.5 81t-76.5 31t-75.5 -32.5t-29.5 -79.5q0 -49 30.5 -81
t74.5 -32zM776 -8q-84 0 -142.5 55.5t-58.5 143.5q0 83 56.5 140.5t144.5 57.5q85 0 143.5 -55.5t58.5 -142.5q0 -84 -56.5 -141.5t-145.5 -57.5zM1226 -8q-85 0 -143.5 55.5t-58.5 143.5q0 83 56.5 140.5t145.5 57.5q84 0 142.5 -55.5t58.5 -142.5q0 -83 -56.5 -141
t-144.5 -58zM777 78q47 0 77 32.5t30 79.5q0 49 -31 80.5t-76 31.5q-47 0 -77 -32.5t-30 -79.5q0 -49 31 -80.5t76 -31.5zM1226 78q47 0 77 32.5t30 79.5q0 49 -31 80.5t-76 31.5q-47 0 -76.5 -32t-29.5 -80q0 -49 30.5 -80.5t75.5 -31.5z" />
    <glyph glyph-name="guilsinglleft" unicode="&#x2039;" horiz-adv-x="308" 
d="M279 463l-122 -213l123 -217h-111l-123 217l121 213h112z" />
    <glyph glyph-name="guilsinglright" unicode="&#x203a;" horiz-adv-x="303" 
d="M29 33l122 213l-123 217h111l123 -217l-121 -213h-112z" />
    <glyph glyph-name="fraction" unicode="&#x2044;" horiz-adv-x="223" 
d="M16 -22l-90 39l313 708l91 -39z" />
    <glyph glyph-name="uni2070" unicode="&#x2070;" horiz-adv-x="412" 
 />
    <glyph glyph-name="dong" unicode="&#x20ab;" horiz-adv-x="609" 
d="M609 638v-76h-62v-562h-107v65h-2q-56 -73 -158 -73q-103 0 -170 69t-67 181q0 110 67.5 181.5t168.5 71.5q98 0 155 -66h2v133h-109v76h109v98h111v-98h62zM297 94q61 0 102 41t41 106q0 66 -40 109.5t-102 43.5q-60 0 -100.5 -42t-40.5 -111q0 -65 39.5 -106t100.5 -41
zM72 -160v102h473v-102h-473z" />
    <glyph glyph-name="Euro" unicode="&#x20ac;" horiz-adv-x="602" 
d="M510 140l65 -87q-87 -60 -191 -60q-107 0 -192.5 63t-113.5 177h-67v70h57q-1 9 -1 29q0 21 1 32h-57v70h69q27 107 107.5 173t196.5 66q102 0 186 -58l-68 -86q-54 37 -118 37q-59 0 -106.5 -35.5t-70.5 -96.5h240v-70h-256q-2 -20 -2 -32q0 -20 1 -29h257v-70h-241
q23 -62 71.5 -97t106.5 -35q71 0 126 39z" />
    <glyph glyph-name="uni20BA" unicode="&#x20ba;" horiz-adv-x="563" 
d="M452 252l97 -38q-43 -117 -107.5 -165.5t-161.5 -48.5h-189v186l-70 -35l-32 71l102 50v68l-70 -34l-31 70l101 50v284h121v-224l113 56l31 -71l-144 -71v-68l113 56l31 -71l-144 -71v-148h55q72 0 112.5 34t72.5 120z" />
    <glyph glyph-name="uni2113" unicode="&#x2113;" horiz-adv-x="462" 
d="M403 119l36 -25q-65 -102 -173 -102q-77 0 -119.5 38.5t-50.5 108.5q-9 -7 -27.5 -21t-27.5 -21l-23 31q10 8 36.5 29t39.5 32l2 264q1 118 45 172t119 54q54 0 84 -40.5t30 -105.5q0 -146 -184 -317v-22q0 -82 28.5 -115t68.5 -33q64 0 116 73zM271 622q-34 0 -58 -38.5
t-24 -125.5l1 -189q143 148 143 258q0 95 -62 95z" />
    <glyph glyph-name="uni2116" unicode="&#x2116;" horiz-adv-x="1119" 
d="M902 410q-69 0 -113 43t-44 110q0 66 44 108.5t113 42.5t113.5 -42.5t44.5 -108.5q0 -68 -44.5 -110.5t-113.5 -42.5zM556 200v510h120v-710h-123l-345 503v-503h-121v710h120l347 -510h2zM902 641q-32 0 -52 -22.5t-20 -55.5q0 -34 20 -56.5t52 -22.5q31 0 52 22.5
t21 56.5t-20.5 56t-52.5 22zM755 279v80h304v-80h-304z" />
    <glyph glyph-name="trademark" unicode="&#x2122;" horiz-adv-x="690" 
d="M109 387v259h-86v64h245v-64h-87v-259h-72zM313 387v323h73l93 -177l92 177h73v-323h-71v191l-72 -129h-46l-73 129v-191h-69z" />
    <glyph glyph-name="uni2126" unicode="&#x2126;" horiz-adv-x="772" 
d="M589 110v-2h121v-108h-274v108q158 117 158 277q0 98 -57.5 159t-150.5 61q-93 -1 -150 -61.5t-57 -158.5q0 -161 157 -277v-108h-273v108h120v2q-130 109 -130 277q0 143 92.5 237t240.5 94t240.5 -94t92.5 -237q0 -168 -130 -277z" />
    <glyph glyph-name="estimated" unicode="&#x212e;" horiz-adv-x="795" 
d="M397 -10q-145 0 -243.5 93.5t-98.5 227.5q0 137 99.5 229t242.5 92q146 0 245 -93.5t99 -227.5v-9h-520v-224q75 -55 177 -55q131 0 209 84h55q-45 -54 -116 -85.5t-149 -31.5zM221 340h352v207q-67 51 -175 51q-109 0 -177 -55v-203z" />
    <glyph glyph-name="partialdiff" unicode="&#x2202;" horiz-adv-x="587" 
d="M281 694q76 0 130 -40.5t79.5 -106t36 -127t10.5 -126.5q0 -147 -69 -224.5t-177 -77.5q-103 0 -172.5 63.5t-69.5 162.5q0 104 63.5 164t155.5 60q88 0 147 -45h1q-26 191 -151 191q-40 0 -138 -35l-34 98q101 43 188 43zM292 104q57 0 93.5 43.5t37.5 117.5
q-23 33 -58.5 53.5t-76.5 20.5q-54 0 -86 -31t-32 -87q0 -48 34.5 -82.5t87.5 -34.5z" />
    <glyph glyph-name="emptyset" unicode="&#x2205;" horiz-adv-x="718" 
d="M602 510q65 -84 65 -192q0 -127 -90 -219t-219 -92q-107 0 -192 67l-48 -48l-47 47l48 48q-69 87 -69 197q0 127 90 218.5t219 91.5q112 0 196 -71l44 44l47 -47zM140 317q0 -73 43 -132l308 308q-58 45 -132 45q-92 0 -155.5 -65t-63.5 -156zM358 97q92 0 155.5 65
t63.5 156q0 69 -40 127l-307 -307q57 -41 128 -41z" />
    <glyph glyph-name="uni2206" unicode="&#x2206;" horiz-adv-x="683" 
d="M401 710l244 -617v-93h-607v93l242 617h121zM174 108h333l-165 453h-2z" />
    <glyph glyph-name="product" unicode="&#x220f;" horiz-adv-x="709" 
d="M87 -104v814h535v-814h-121v706h-293v-706h-121z" />
    <glyph glyph-name="summation" unicode="&#x2211;" horiz-adv-x="614" 
d="M565 710v-108h-353l199 -286l-199 -287h353v-109h-513v86l221 310l-221 306v88h513z" />
    <glyph glyph-name="minus" unicode="&#x2212;" horiz-adv-x="573" 
d="M50 226v102h473v-102h-473z" />
    <glyph glyph-name="radical" unicode="&#x221a;" horiz-adv-x="717" 
d="M691 822h85l-385 -822h-78l-167 500h-113v98h206l142 -439h2z" />
    <glyph glyph-name="infinity" unicode="&#x221e;" horiz-adv-x="783" 
d="M559 445q69 0 117 -48t48 -120q0 -74 -48.5 -121t-116.5 -47q-93 0 -168 95q-75 -95 -167 -95q-70 0 -117.5 48.5t-47.5 119.5q0 74 48.5 121t116.5 47q95 0 167 -95q77 95 168 95zM226 198q51 0 109 79q-58 80 -109 80q-32 0 -54 -22t-22 -58q0 -35 22 -57t54 -22z
M560 198q30 0 51 22t21 57q0 36 -21 58t-51 22q-56 0 -113 -80q59 -79 113 -79z" />
    <glyph glyph-name="integral" unicode="&#x222b;" horiz-adv-x="398" 
d="M49 -171q-30 -2 -76 4l12 86h9q46 0 59 19t24 89l79 529q11 67 46.5 103.5t85.5 39.5q25 1 46.5 -1.5t34.5 -5.5t16 -3l-12 -80q-7 0 -17 0.5t-14 0.5q-46 0 -58.5 -18.5t-23.5 -91.5l-80 -529q-10 -66 -45 -102t-86 -40z" />
    <glyph glyph-name="uni2236" unicode="&#x2236;" horiz-adv-x="270" 
d="M131 404q-32 0 -54 21.5t-22 52.5t22.5 53t53.5 22t53 -22t22 -53t-22 -52.5t-53 -21.5zM131 50q-32 0 -54 21.5t-22 52.5t22.5 53t53.5 22t53 -22t22 -53t-22 -52.5t-53 -21.5z" />
    <glyph glyph-name="approxequal" unicode="&#x2248;" horiz-adv-x="590" 
d="M409 313q-33 0 -99 24.5t-105 24.5q-59 0 -118 -39l-32 78q18 19 57.5 40t81.5 21t106 -24.5t97 -24.5q54 0 104 44l34 -79q-56 -65 -126 -65zM409 93q-33 0 -99 24.5t-105 24.5q-59 0 -118 -39l-32 77q17 19 56.5 40.5t82.5 21.5t106.5 -25t96.5 -25q55 0 104 45l34 -80
q-55 -64 -126 -64z" />
    <glyph glyph-name="notequal" unicode="&#x2260;" horiz-adv-x="591" 
d="M532 340h-166l-58 -126h224v-102h-272l-52 -112l-75 29l39 83h-113v102h160l59 126h-219v102h266l56 120l75 -30l-42 -90h118v-102z" />
    <glyph glyph-name="lessequal" unicode="&#x2264;" horiz-adv-x="587" 
d="M520 158l-460 201v84l460 205v-113l-309 -133l309 -133v-111zM523 0h-464v102h464v-102z" />
    <glyph glyph-name="greaterequal" unicode="&#x2265;" horiz-adv-x="586" 
d="M67 158v111l309 133l-309 133v113l460 -205v-84zM64 0v102h464v-102h-464z" />
    <glyph glyph-name="uni2713" unicode="&#x2713;" horiz-adv-x="585" 
d="M216 115l-193 200l65 63l111 -116l322 526l78 -48z" />
    <glyph glyph-name="uni2715" unicode="&#x2715;" horiz-adv-x="366" 
d="M85 117l-62 62l99 99l-99 98l61 61l98 -98l99 99l62 -62l-99 -100l99 -99l-61 -60l-98 98z" />
    <glyph glyph-name="Q.alt" horiz-adv-x="828" 
d="M772 355q0 -96 -39 -174t-108 -126l138 -114l-73 -90l-180 152q-47 -11 -96 -11q-159 0 -259 102.5t-100 260.5t100 260.5t259 102.5q155 0 256.5 -101t101.5 -262zM180 355q0 -106 65.5 -178t168.5 -72q99 0 165.5 71t66.5 179q0 109 -66.5 179.5t-165.5 70.5
q-103 0 -168.5 -72t-65.5 -178z" />
    <glyph glyph-name="i.loclTRK" horiz-adv-x="272" 
d="M136 560q-31 0 -53 22t-22 53q0 30 22 52t53 22t53.5 -22t22.5 -52q0 -31 -22.5 -53t-53.5 -22zM80 0v488h112v-488h-112z" />
    <glyph glyph-name="a.alt" horiz-adv-x="516" 
d="M264 496q92 0 143 -52t51 -154v-290h-104l-4 45h-2q-64 -53 -142 -53q-80 0 -122.5 43t-42.5 112q0 77 49 119t144 42h112q-8 86 -91 86q-67 0 -136 -33l-42 89q83 46 187 46zM230 94q51 0 84 22.5t33 46.5v52h-101q-93 0 -93 -63q0 -25 20 -41.5t57 -16.5z" />
    <glyph glyph-name="aacute.alt" horiz-adv-x="516" 
d="M438 701l-124 -145h-114l115 144zM264 496q92 0 143 -52t51 -154v-290h-104l-4 45h-2q-64 -53 -142 -53q-80 0 -122.5 43t-42.5 112q0 77 49 119t144 42h112q-8 86 -91 86q-67 0 -136 -33l-42 89q83 46 187 46zM230 94q51 0 84 22.5t33 46.5v52h-101q-93 0 -93 -63
q0 -25 20 -41.5t57 -16.5z" />
    <glyph glyph-name="abreve.alt" horiz-adv-x="516" 
d="M265 551q-63 0 -107 38.5t-49 107.5h88q2 -30 20 -49t48 -19q29 0 48 18.5t20 49.5h88q-5 -65 -47.5 -105.5t-108.5 -40.5zM264 496q92 0 143 -52t51 -154v-290h-104l-4 45h-2q-64 -53 -142 -53q-80 0 -122.5 43t-42.5 112q0 77 49 119t144 42h112q-8 86 -91 86
q-67 0 -136 -33l-42 89q83 46 187 46zM230 94q51 0 84 22.5t33 46.5v52h-101q-93 0 -93 -63q0 -25 20 -41.5t57 -16.5z" />
    <glyph glyph-name="uni1EAF.alt" horiz-adv-x="516" 
d="M423 857l-124 -145h-114l115 144zM263 551q-63 0 -107 38.5t-49 107.5h88q2 -30 20 -49t48 -19q29 0 48 18.5t20 49.5h88q-5 -65 -47.5 -105.5t-108.5 -40.5zM264 496q92 0 143 -52t51 -154v-290h-104l-4 45h-2q-64 -53 -142 -53q-80 0 -122.5 43t-42.5 112q0 77 49 119
t144 42h112q-8 86 -91 86q-67 0 -136 -33l-42 89q83 46 187 46zM230 94q51 0 84 22.5t33 46.5v52h-101q-93 0 -93 -63q0 -25 20 -41.5t57 -16.5z" />
    <glyph glyph-name="uni1EB7.alt" horiz-adv-x="516" 
d="M265 551q-63 0 -107 38.5t-49 107.5h88q2 -30 20 -49t48 -19q29 0 48 18.5t20 49.5h88q-5 -65 -47.5 -105.5t-108.5 -40.5zM264 496q92 0 143 -52t51 -154v-290h-104l-4 45h-2q-64 -53 -142 -53q-80 0 -122.5 43t-42.5 112q0 77 49 119t144 42h112q-8 86 -91 86
q-67 0 -136 -33l-42 89q83 46 187 46zM230 94q51 0 84 22.5t33 46.5v52h-101q-93 0 -93 -63q0 -25 20 -41.5t57 -16.5zM265 -97q31 0 53 -22t22 -53q0 -30 -22 -52t-53 -22t-53.5 22t-22.5 52q0 31 22.5 53t53.5 22z" />
    <glyph glyph-name="uni1EB1.alt" horiz-adv-x="516" 
d="M319 712h-114l-124 145l123 -1zM266 629q29 0 47.5 18.5t20.5 49.5h88q-5 -65 -47.5 -105.5t-108.5 -40.5q-63 0 -107 38.5t-49 107.5h88q2 -30 20 -49t48 -19zM264 496q92 0 143 -52t51 -154v-290h-104l-4 45h-2q-64 -53 -142 -53q-80 0 -122.5 43t-42.5 112
q0 77 49 119t144 42h112q-8 86 -91 86q-67 0 -136 -33l-42 89q83 46 187 46zM230 94q51 0 84 22.5t33 46.5v52h-101q-93 0 -93 -63q0 -25 20 -41.5t57 -16.5z" />
    <glyph glyph-name="uni1EB3.alt" horiz-adv-x="516" 
d="M269 819q-42 0 -71 -31l-45 42q20 21 54 34.5t69 13.5q47 0 73 -21.5t26 -56.5q0 -62 -89 -80l-8 -26h-44q-20 18 -20 30q0 16 42 37t42 38q0 20 -29 20zM265 551q-63 0 -107 38.5t-49 107.5h88q2 -30 20 -49t48 -19q29 0 48 18.5t20 49.5h88q-5 -65 -47.5 -105.5
t-108.5 -40.5zM264 496q92 0 143 -52t51 -154v-290h-104l-4 45h-2q-64 -53 -142 -53q-80 0 -122.5 43t-42.5 112q0 77 49 119t144 42h112q-8 86 -91 86q-67 0 -136 -33l-42 89q83 46 187 46zM230 94q51 0 84 22.5t33 46.5v52h-101q-93 0 -93 -63q0 -25 20 -41.5t57 -16.5z
" />
    <glyph glyph-name="uni1EB5.alt" horiz-adv-x="516" 
d="M205 768q-27 0 -48 -52l-68 31q15 50 42.5 80t61.5 30q6 0 12 -0.5t11.5 -1.5t9.5 -2t9 -3t7.5 -3.5t8 -4.5t7 -4t7.5 -4.5t7 -4.5q40 -25 58 -25q36 0 57 52l68 -23q-15 -56 -44 -87.5t-67 -31.5q-37 0 -88 32q-3 2 -10 6.5t-10 6.5t-8.5 4.5t-11 3.5t-11.5 1zM264 629
q29 0 47.5 18.5t20.5 49.5h88q-5 -65 -47.5 -105.5t-108.5 -40.5q-63 0 -107 38.5t-49 107.5h88q2 -30 20 -49t48 -19zM264 496q92 0 143 -52t51 -154v-290h-104l-4 45h-2q-64 -53 -142 -53q-80 0 -122.5 43t-42.5 112q0 77 49 119t144 42h112q-8 86 -91 86q-67 0 -136 -33
l-42 89q83 46 187 46zM230 94q51 0 84 22.5t33 46.5v52h-101q-93 0 -93 -63q0 -25 20 -41.5t57 -16.5z" />
    <glyph glyph-name="acircumflex.alt" horiz-adv-x="516" 
d="M263 629l-55 -75h-109l113 147h100l118 -147h-110l-55 75h-2zM264 496q92 0 143 -52t51 -154v-290h-104l-4 45h-2q-64 -53 -142 -53q-80 0 -122.5 43t-42.5 112q0 77 49 119t144 42h112q-8 86 -91 86q-67 0 -136 -33l-42 89q83 46 187 46zM230 94q51 0 84 22.5t33 46.5
v52h-101q-93 0 -93 -63q0 -25 20 -41.5t57 -16.5z" />
    <glyph glyph-name="uni1EA5.alt" horiz-adv-x="516" 
d="M495 789h123l-153 -145h-85zM264 629l-55 -75h-109l113 147h100l118 -147h-110l-55 75h-2zM264 496q92 0 143 -52t51 -154v-290h-104l-4 45h-2q-64 -53 -142 -53q-80 0 -122.5 43t-42.5 112q0 77 49 119t144 42h112q-8 86 -91 86q-67 0 -136 -33l-42 89q83 46 187 46z
M230 94q51 0 84 22.5t33 46.5v52h-101q-93 0 -93 -63q0 -25 20 -41.5t57 -16.5z" />
    <glyph glyph-name="uni1EAD.alt" horiz-adv-x="516" 
d="M263 629l-55 -75h-109l113 147h100l118 -147h-110l-55 75h-2zM264 496q92 0 143 -52t51 -154v-290h-104l-4 45h-2q-64 -53 -142 -53q-80 0 -122.5 43t-42.5 112q0 77 49 119t144 42h112q-8 86 -91 86q-67 0 -136 -33l-42 89q83 46 187 46zM230 94q51 0 84 22.5t33 46.5
v52h-101q-93 0 -93 -63q0 -25 20 -41.5t57 -16.5zM265 -97q31 0 53 -22t22 -53q0 -30 -22 -52t-53 -22t-53.5 22t-22.5 52q0 31 22.5 53t53.5 22z" />
    <glyph glyph-name="uni1EA7.alt" horiz-adv-x="516" 
d="M502 644h-85l-124 145h124zM264 629l-55 -75h-109l113 147h100l118 -147h-110l-55 75h-2zM264 496q92 0 143 -52t51 -154v-290h-104l-4 45h-2q-64 -53 -142 -53q-80 0 -122.5 43t-42.5 112q0 77 49 119t144 42h112q-8 86 -91 86q-67 0 -136 -33l-42 89q83 46 187 46z
M230 94q51 0 84 22.5t33 46.5v52h-101q-93 0 -93 -63q0 -25 20 -41.5t57 -16.5z" />
    <glyph glyph-name="uni1EA9.alt" horiz-adv-x="516" 
d="M445 802q44 0 69.5 -22t25.5 -56q0 -62 -84 -81l-9 -25h-44q-19 16 -19 30q0 15 39.5 36.5t39.5 38.5q0 20 -25 20q-41 0 -71 -32l-45 43q21 21 55 34.5t68 13.5zM263 629l-55 -75h-109l113 147h100l118 -147h-110l-55 75h-2zM264 496q92 0 143 -52t51 -154v-290h-104
l-4 45h-2q-64 -53 -142 -53q-80 0 -122.5 43t-42.5 112q0 77 49 119t144 42h112q-8 86 -91 86q-67 0 -136 -33l-42 89q83 46 187 46zM230 94q51 0 84 22.5t33 46.5v52h-101q-93 0 -93 -63q0 -25 20 -41.5t57 -16.5z" />
    <glyph glyph-name="uni1EAB.alt" horiz-adv-x="516" 
d="M207 768q-27 0 -48 -52l-68 31q15 50 42.5 80t61.5 30q6 0 12 -0.5t11.5 -1.5t9.5 -2t9 -3t7.5 -3.5t8 -4.5t7 -4t7.5 -4.5t7 -4.5q40 -25 58 -25q36 0 57 52l68 -23q-15 -56 -44 -87.5t-67 -31.5q-37 0 -88 32q-3 2 -10 6.5t-10 6.5t-8.5 4.5t-11 3.5t-11.5 1zM213 701
h100l118 -147h-110l-55 75h-2l-55 -75h-109zM264 496q92 0 143 -52t51 -154v-290h-104l-4 45h-2q-64 -53 -142 -53q-80 0 -122.5 43t-42.5 112q0 77 49 119t144 42h112q-8 86 -91 86q-67 0 -136 -33l-42 89q83 46 187 46zM230 94q51 0 84 22.5t33 46.5v52h-101
q-93 0 -93 -63q0 -25 20 -41.5t57 -16.5z" />
    <glyph glyph-name="adieresis.alt" horiz-adv-x="516" 
d="M166 560q-32 0 -54 22t-22 53q0 30 22 52t54 22q31 0 53 -22t22 -52q0 -31 -22 -53t-53 -22zM364 562q-31 0 -52.5 21.5t-21.5 51.5q0 29 22 51t52 22q31 0 53 -22t22 -51q0 -30 -22 -51.5t-53 -21.5zM264 496q92 0 143 -52t51 -154v-290h-104l-4 45h-2q-64 -53 -142 -53
q-80 0 -122.5 43t-42.5 112q0 77 49 119t144 42h112q-8 86 -91 86q-67 0 -136 -33l-42 89q83 46 187 46zM230 94q51 0 84 22.5t33 46.5v52h-101q-93 0 -93 -63q0 -25 20 -41.5t57 -16.5z" />
    <glyph glyph-name="uni1EA1.alt" horiz-adv-x="516" 
d="M264 496q92 0 143 -52t51 -154v-290h-104l-4 45h-2q-64 -53 -142 -53q-80 0 -122.5 43t-42.5 112q0 77 49 119t144 42h112q-8 86 -91 86q-67 0 -136 -33l-42 89q83 46 187 46zM230 94q51 0 84 22.5t33 46.5v52h-101q-93 0 -93 -63q0 -25 20 -41.5t57 -16.5zM265 -97
q31 0 53 -22t22 -53q0 -30 -22 -52t-53 -22t-53.5 22t-22.5 52q0 31 22.5 53t53.5 22z" />
    <glyph glyph-name="agrave.alt" horiz-adv-x="516" 
d="M356 556h-114l-124 145l123 -1zM264 496q92 0 143 -52t51 -154v-290h-104l-4 45h-2q-64 -53 -142 -53q-80 0 -122.5 43t-42.5 112q0 77 49 119t144 42h112q-8 86 -91 86q-67 0 -136 -33l-42 89q83 46 187 46zM230 94q51 0 84 22.5t33 46.5v52h-101q-93 0 -93 -63
q0 -25 20 -41.5t57 -16.5z" />
    <glyph glyph-name="uni1EA3.alt" horiz-adv-x="516" 
d="M269 658q-42 0 -71 -31l-45 42q20 21 54 34.5t69 13.5q47 0 73 -21.5t26 -56.5q0 -62 -89 -80l-8 -26h-44q-20 18 -20 30q0 16 42 37t42 38q0 20 -29 20zM264 496q92 0 143 -52t51 -154v-290h-104l-4 45h-2q-64 -53 -142 -53q-80 0 -122.5 43t-42.5 112q0 77 49 119
t144 42h112q-8 86 -91 86q-67 0 -136 -33l-42 89q83 46 187 46zM230 94q51 0 84 22.5t33 46.5v52h-101q-93 0 -93 -63q0 -25 20 -41.5t57 -16.5z" />
    <glyph glyph-name="amacron.alt" horiz-adv-x="516" 
d="M414 678v-94h-298v94h298zM264 496q92 0 143 -52t51 -154v-290h-104l-4 45h-2q-64 -53 -142 -53q-80 0 -122.5 43t-42.5 112q0 77 49 119t144 42h112q-8 86 -91 86q-67 0 -136 -33l-42 89q83 46 187 46zM230 94q51 0 84 22.5t33 46.5v52h-101q-93 0 -93 -63
q0 -25 20 -41.5t57 -16.5z" />
    <glyph glyph-name="aogonek.alt" horiz-adv-x="516" 
d="M457 -108l7 -68q-28 -12 -72 -12q-49 0 -78.5 24t-29.5 64q0 26 18 54t51 49l1 2l-4 40h-2q-64 -53 -142 -53q-80 0 -122.5 43t-42.5 112q0 77 49 119t144 42h112q-8 86 -91 86q-67 0 -136 -33l-42 89q83 46 187 46q92 0 143 -52t51 -154v-290h-6q-36 -8 -57.5 -29.5
t-21.5 -45.5q0 -41 43 -41q23 0 41 8zM230 94q51 0 84 22.5t33 46.5v52h-101q-93 0 -93 -63q0 -25 20 -41.5t57 -16.5z" />
    <glyph glyph-name="aring.alt" horiz-adv-x="516" 
d="M264 530q-44 0 -76 30.5t-32 74.5q0 43 31 74t77 31q45 0 77 -30t32 -75q0 -44 -31 -74.5t-78 -30.5zM264 674q-16 0 -27 -11.5t-11 -26.5q0 -16 11 -27t27 -11t27.5 11t11.5 27t-11.5 27t-27.5 11zM264 496q92 0 143 -52t51 -154v-290h-104l-4 45h-2q-64 -53 -142 -53
q-80 0 -122.5 43t-42.5 112q0 77 49 119t144 42h112q-8 86 -91 86q-67 0 -136 -33l-42 89q83 46 187 46zM230 94q51 0 84 22.5t33 46.5v52h-101q-93 0 -93 -63q0 -25 20 -41.5t57 -16.5z" />
    <glyph glyph-name="aringacute.alt" horiz-adv-x="516" 
d="M264 530q-44 0 -76 30.5t-32 74.5q0 43 31 74t77 31q41 0 71 -25l60 44h126l-148 -115v-9q0 -44 -31 -74.5t-78 -30.5zM264 674q-16 0 -27 -11.5t-11 -26.5q0 -16 11 -27t27 -11t27.5 11t11.5 27t-11.5 27t-27.5 11zM264 496q92 0 143 -52t51 -154v-290h-104l-4 45h-2
q-64 -53 -142 -53q-80 0 -122.5 43t-42.5 112q0 77 49 119t144 42h112q-8 86 -91 86q-67 0 -136 -33l-42 89q83 46 187 46zM230 94q51 0 84 22.5t33 46.5v52h-101q-93 0 -93 -63q0 -25 20 -41.5t57 -16.5z" />
    <glyph glyph-name="atilde.alt" horiz-adv-x="516" 
d="M201 607q-37 0 -58 -52l-68 31q34 110 114 110q40 0 84 -28q40 -25 58 -25q36 0 57 52l68 -23q-15 -56 -44 -87.5t-67 -31.5q-37 0 -88 32q-35 22 -56 22zM264 496q92 0 143 -52t51 -154v-290h-104l-4 45h-2q-64 -53 -142 -53q-80 0 -122.5 43t-42.5 112q0 77 49 119
t144 42h112q-8 86 -91 86q-67 0 -136 -33l-42 89q83 46 187 46zM230 94q51 0 84 22.5t33 46.5v52h-101q-93 0 -93 -63q0 -25 20 -41.5t57 -16.5z" />
    <glyph glyph-name="g.alt" horiz-adv-x="525" 
d="M319 81q35 0 66 -5.5t61.5 -19.5t48.5 -42.5t18 -69.5q0 -71 -62.5 -117t-188.5 -46q-120 0 -181.5 39.5t-61.5 106.5q0 63 60 108v3q-33 27 -33 69q0 47 57 105q-40 46 -40 107q0 77 55 127t144 50q60 0 104 -23l3 1l85 85l65 -64l-84 -80v-2q27 -41 27 -94
q0 -75 -55 -124.5t-145 -49.5q-48 0 -92 19h-2q-31 -31 -31 -50q0 -33 57 -33h125zM262 404q-40 0 -65 -25t-25 -60t25 -59.5t65 -24.5q39 0 64 24.5t25 59.5q0 36 -25 60.5t-64 24.5zM265 -122q61 0 98.5 17t37.5 48q0 28 -28.5 38t-84.5 10q-100 0 -146 7q-23 -24 -23 -55
q0 -64 146 -65z" />
    <glyph glyph-name="gbreve.alt" horiz-adv-x="525" 
d="M262 548q-63 0 -107 38.5t-49 107.5h88q2 -30 20 -49t48 -19q29 0 47.5 18.5t20.5 49.5h88q-5 -65 -47.5 -105.5t-108.5 -40.5zM319 81q35 0 66 -5.5t61.5 -19.5t48.5 -42.5t18 -69.5q0 -71 -62.5 -117t-188.5 -46q-120 0 -181.5 39.5t-61.5 106.5q0 63 60 108v3
q-33 27 -33 69q0 47 57 105q-40 46 -40 107q0 77 55 127t144 50q60 0 104 -23l3 1l85 85l65 -64l-84 -80v-2q27 -41 27 -94q0 -75 -55 -124.5t-145 -49.5q-48 0 -92 19h-2q-31 -31 -31 -50q0 -33 57 -33h125zM262 404q-40 0 -65 -25t-25 -60t25 -59.5t65 -24.5q39 0 64 24.5
t25 59.5q0 36 -25 60.5t-64 24.5zM265 -122q61 0 98.5 17t37.5 48q0 28 -28.5 38t-84.5 10q-100 0 -146 7q-23 -24 -23 -55q0 -64 146 -65z" />
    <glyph glyph-name="gcaron.alt" horiz-adv-x="525" 
d="M309 551h-100l-113 147h109l55 -76h2l55 76h110zM319 81q35 0 66 -5.5t61.5 -19.5t48.5 -42.5t18 -69.5q0 -71 -62.5 -117t-188.5 -46q-120 0 -181.5 39.5t-61.5 106.5q0 63 60 108v3q-33 27 -33 69q0 47 57 105q-40 46 -40 107q0 77 55 127t144 50q60 0 104 -23l3 1
l85 85l65 -64l-84 -80v-2q27 -41 27 -94q0 -75 -55 -124.5t-145 -49.5q-48 0 -92 19h-2q-31 -31 -31 -50q0 -33 57 -33h125zM262 404q-40 0 -65 -25t-25 -60t25 -59.5t65 -24.5q39 0 64 24.5t25 59.5q0 36 -25 60.5t-64 24.5zM265 -122q61 0 98.5 17t37.5 48q0 28 -28.5 38
t-84.5 10q-100 0 -146 7q-23 -24 -23 -55q0 -64 146 -65z" />
    <glyph glyph-name="gcircumflex.alt" horiz-adv-x="525" 
d="M259 631l-55 -77h-109l112 147h101l117 -147h-110zM319 81q35 0 66 -5.5t61.5 -19.5t48.5 -42.5t18 -69.5q0 -71 -62.5 -117t-188.5 -46q-120 0 -181.5 39.5t-61.5 106.5q0 63 60 108v3q-33 27 -33 69q0 47 57 105q-40 46 -40 107q0 77 55 127t144 50q60 0 104 -23l3 1
l85 85l65 -64l-84 -80v-2q27 -41 27 -94q0 -75 -55 -124.5t-145 -49.5q-48 0 -92 19h-2q-31 -31 -31 -50q0 -33 57 -33h125zM262 404q-40 0 -65 -25t-25 -60t25 -59.5t65 -24.5q39 0 64 24.5t25 59.5q0 36 -25 60.5t-64 24.5zM265 -122q61 0 98.5 17t37.5 48q0 28 -28.5 38
t-84.5 10q-100 0 -146 7q-23 -24 -23 -55q0 -64 146 -65z" />
    <glyph glyph-name="gcommaaccent.alt" horiz-adv-x="525" 
d="M317 556h-102q-4 20 -4 47q0 54 36.5 83.5t92.5 35.5l26 -65q-30 -11 -42.5 -24.5t-12.5 -37.5q0 -13 6 -39zM319 81q35 0 66 -5.5t61.5 -19.5t48.5 -42.5t18 -69.5q0 -71 -62.5 -117t-188.5 -46q-120 0 -181.5 39.5t-61.5 106.5q0 63 60 108v3q-33 27 -33 69
q0 47 57 105q-40 46 -40 107q0 77 55 127t144 50q60 0 104 -23l3 1l85 85l65 -64l-84 -80v-2q27 -41 27 -94q0 -75 -55 -124.5t-145 -49.5q-48 0 -92 19h-2q-31 -31 -31 -50q0 -33 57 -33h125zM262 404q-40 0 -65 -25t-25 -60t25 -59.5t65 -24.5q39 0 64 24.5t25 59.5
q0 36 -25 60.5t-64 24.5zM265 -122q61 0 98.5 17t37.5 48q0 28 -28.5 38t-84.5 10q-100 0 -146 7q-23 -24 -23 -55q0 -64 146 -65z" />
    <glyph glyph-name="gdotaccent.alt" horiz-adv-x="525" 
d="M262 557q-31 0 -53 22t-22 53q0 30 22 52t53 22t53.5 -22t22.5 -52q0 -31 -22.5 -53t-53.5 -22zM319 81q35 0 66 -5.5t61.5 -19.5t48.5 -42.5t18 -69.5q0 -71 -62.5 -117t-188.5 -46q-120 0 -181.5 39.5t-61.5 106.5q0 63 60 108v3q-33 27 -33 69q0 47 57 105
q-40 46 -40 107q0 77 55 127t144 50q60 0 104 -23l3 1l85 85l65 -64l-84 -80v-2q27 -41 27 -94q0 -75 -55 -124.5t-145 -49.5q-48 0 -92 19h-2q-31 -31 -31 -50q0 -33 57 -33h125zM262 404q-40 0 -65 -25t-25 -60t25 -59.5t65 -24.5q39 0 64 24.5t25 59.5q0 36 -25 60.5
t-64 24.5zM265 -122q61 0 98.5 17t37.5 48q0 28 -28.5 38t-84.5 10q-100 0 -146 7q-23 -24 -23 -55q0 -64 146 -65z" />
    <glyph glyph-name="f.calt" horiz-adv-x="343" 
d="M91 0v393h-54v95h54v94q0 162 148 162q39 0 80 -15l-23 -95q-22 9 -36 9q-57 0 -57 -78v-77h120v-95h-120v-393h-112z" />
    <glyph glyph-name="j.calt" horiz-adv-x="249" 
d="M125 560q-31 0 -53 22t-22 53q0 30 22 52t53 22t53.5 -22t22.5 -52q0 -31 -22.5 -53t-53.5 -22zM5 -104q3 -1 23 -1q23 0 32.5 17t9.5 55v521h112v-521q0 -84 -37 -128.5t-99 -44.5q-32 0 -53 5z" />
    <glyph glyph-name="uni0237.calt" horiz-adv-x="249" 
d="M5 -104q3 -1 23 -1q23 0 32.5 17t9.5 55v521h112v-521q0 -84 -37 -128.5t-99 -44.5q-32 0 -53 5z" />
    <glyph glyph-name="jcircumflex.calt" horiz-adv-x="249" 
d="M123 629l-55 -75h-109l113 147h100l118 -147h-110l-55 75h-2zM70 -33v521h112v-521q0 -84 -37 -128.5t-99 -44.5q-32 0 -53 5l12 97q3 -1 23 -1q23 0 32.5 17t9.5 55z" />
    <glyph glyph-name="germandbls.calt" horiz-adv-x="762" 
d="M523 422q108 -43 142 -68q74 -53 74 -149q0 -69 -38 -119.5t-89.5 -72t-107.5 -21.5q-115 0 -215 82l56 109q36 -38 79.5 -58.5t80.5 -20.5q51 0 79.5 23.5t28.5 62.5q0 43 -30 65t-107 49q-44 15 -112 47l125 245v1q-98 12 -142 12q-80 0 -117.5 -31t-38.5 -105v-473
h-121l1 479q0 239 262 239q119 0 321 -47z" />
    <glyph glyph-name="gamma.alt" horiz-adv-x="549" 
d="M514 488q-18 -141 -63.5 -257t-134.5 -240q13 -78 20 -189h-105q-15 121 -26 183.5t-37 157.5q-43 159 -64.5 206t-55.5 47q-14 0 -28 -5l-12 88q41 17 76 17q48 0 74 -27.5t49 -89.5q38 -107 74 -253h2q109 184 110 362h121z" />
    <glyph glyph-name="eta.alt" horiz-adv-x="622" 
d="M374 495q85 0 134 -50t49 -158v-485h-112v456q0 74 -26.5 105t-79.5 31q-51 0 -83.5 -40.5t-32.5 -110.5v-243h-112v337q0 32 -6.5 45.5t-26.5 13.5q-15 0 -30 -5l-11 88q40 17 80 17q39 0 65.5 -21t35.5 -57h2q60 77 154 77z" />
    <glyph glyph-name="uni03BC.alt" horiz-adv-x="594" 
d="M572 103l11 -93q-36 -18 -76 -18q-75 0 -98 69h-2q-52 -69 -136 -69q-63 0 -98 41h-1q7 -52 7 -116v-115h-112v686h112v-254q0 -140 106 -140q50 0 80.5 39.5t30.5 110.5v244h112v-341q0 -32 6.5 -41.5t26.5 -9.5q13 0 31 7z" />
    <glyph glyph-name="nu.alt" horiz-adv-x="541" 
d="M384 488h121q-15 -276 -194 -488h-107l-184 488h119l127 -372h3q122 174 115 372z" />
    <glyph glyph-name="xi.alt" horiz-adv-x="496" 
d="M319 102q92 -31 125 -61.5t33 -91.5q0 -39 -27 -88t-58 -81l-94 51q65 67 65 105q0 25 -19.5 39t-79.5 36q-7 3 -22 8q-40 14 -60 22t-51 26t-46.5 36t-27.5 48t-12 67q0 57 31.5 101t88.5 69v3q-61 39 -61 115q0 88 91 133v2h-112v95h388v-90q-254 -22 -254 -131
q0 -91 153 -91h58v-95h-110q-76 0 -117.5 -27.5t-41.5 -76.5q0 -46 35 -69t125 -54z" />
    <glyph glyph-name="pi.alt" horiz-adv-x="630" 
d="M604 393h-91v-256q0 -24 9 -32.5t33 -8.5q14 0 31 4l11 -95q-46 -13 -85 -13q-58 0 -84.5 33.5t-26.5 85.5v282h-182v-393h-112v393h-80v88l92 7h485v-95z" />
    <glyph glyph-name="upsilon.alt" horiz-adv-x="558" 
d="M271 -8q-98 0 -157.5 63t-59.5 181v252h112v-241q0 -76 29.5 -114.5t76.5 -38.5q53 0 88 47.5t35 138.5q0 108 -29 203l111 18q34 -110 34 -218q0 -155 -65.5 -223t-174.5 -68z" />
    <glyph glyph-name="psi.alt" horiz-adv-x="712" 
d="M667 291q0 -150 -69.5 -223t-184.5 -76v-190h-112v190q-114 2 -180.5 63.5t-66.5 177.5v255h112v-243q0 -71 36.5 -108t98.5 -40v546l112 8v-554q61 3 100 50.5t39 145.5q0 110 -31 190l107 18q39 -99 39 -210z" />
    <glyph glyph-name="upsilontonos.alt" horiz-adv-x="558" 
d="M220 556l58 169h129l-79 -169h-108zM271 -8q-98 0 -157.5 63t-59.5 181v252h112v-241q0 -76 29.5 -114.5t76.5 -38.5q53 0 88 47.5t35 138.5q0 108 -29 203l111 18q34 -110 34 -218q0 -155 -65.5 -223t-174.5 -68z" />
    <glyph glyph-name="upsilondieresis.alt" horiz-adv-x="558" 
d="M170 560q-31 0 -53 22t-22 53q0 30 22 52t53 22t53.5 -22t22.5 -52q0 -31 -22.5 -53t-53.5 -22zM384 562q-31 0 -53 21.5t-22 51.5q0 29 22.5 51t52.5 22t52 -22t22 -51q0 -30 -22 -51.5t-52 -21.5zM271 -8q-98 0 -157.5 63t-59.5 181v252h112v-241q0 -76 29.5 -114.5
t76.5 -38.5q53 0 88 47.5t35 138.5q0 108 -29 203l111 18q34 -110 34 -218q0 -155 -65.5 -223t-174.5 -68z" />
    <glyph glyph-name="upsilondieresistonos.alt" horiz-adv-x="558" 
d="M223 565l13 169h104l-32 -169h-85zM127 560q-31 0 -53 22t-22 53q0 30 22 52t53 22t53.5 -22t22.5 -52q0 -31 -22.5 -53t-53.5 -22zM422 562q-31 0 -52.5 21.5t-21.5 51.5q0 29 22 51t52 22t52 -22t22 -51q0 -30 -22 -51.5t-52 -21.5zM271 -8q-98 0 -157.5 63t-59.5 181
v252h112v-241q0 -76 29.5 -114.5t76.5 -38.5q53 0 88 47.5t35 138.5q0 108 -29 203l111 18q34 -110 34 -218q0 -155 -65.5 -223t-174.5 -68z" />
    <glyph glyph-name="etatonos.alt" horiz-adv-x="622" 
d="M464 725l-79 -169h-108l58 169h129zM374 495q85 0 134 -50t49 -158v-485h-112v456q0 74 -26.5 105t-79.5 31q-51 0 -83.5 -40.5t-32.5 -110.5v-243h-112v337q0 32 -6.5 45.5t-26.5 13.5q-15 0 -30 -5l-11 88q40 17 80 17q39 0 65.5 -21t35.5 -57h2q60 77 154 77z" />
    <glyph glyph-name="bullet.case" horiz-adv-x="425" 
d="M213 228q-47 0 -79.5 32.5t-32.5 78.5q0 47 32.5 79.5t79.5 32.5t80 -33t33 -79t-33 -78.5t-80 -32.5z" />
    <glyph glyph-name="exclamdown.case" horiz-adv-x="270" 
d="M135 538q31 0 53 -21.5t22 -52.5t-22 -53t-53 -22t-53.5 22t-22.5 53t22 52.5t54 21.5zM94 306h87l20 -512h-127z" />
    <glyph glyph-name="questiondown.case" horiz-adv-x="463" 
d="M266 538q32 0 54 -21.5t22 -52.5t-22.5 -53t-53.5 -22t-53 22t-22 53t22 52.5t53 21.5zM318 306v-50q0 -10 -1 -19.5t-5 -19.5t-6.5 -17t-9.5 -17.5l-10 -15t-13 -16t-12.5 -14t-14.5 -15t-14 -14.5q-31 -34 -47.5 -61.5t-16.5 -61.5q0 -42 25 -65t65 -23q29 0 58 16
t47 43l84 -78q-73 -92 -198 -92q-86 0 -146.5 50.5t-60.5 142.5q0 89 88 175q7 7 23.5 22t24.5 22.5t18 19.5t14.5 22.5t5.5 21.5l3 44h99z" />
    <glyph glyph-name="braceleft.case" horiz-adv-x="330" 
d="M229 442q0 -46 -13 -70.5t-43 -34.5q32 -11 44 -31.5t12 -74.5v-181q0 -38 13 -55.5t47 -17.5h23v-77h-66q-49 0 -81.5 33.5t-32.5 88.5v194q0 19 -1.5 29t-9 23t-25 18.5t-46.5 6.5v86q29 1 47 8t25 20t8.5 23t1.5 27v199q0 52 31.5 87t82.5 35h66v-77h-23
q-31 0 -45.5 -20.5t-14.5 -45.5v-193z" />
    <glyph glyph-name="braceright.case" horiz-adv-x="330" 
d="M198 457q0 -17 1.5 -27t8.5 -23t25 -20t47 -8v-86q-29 -1 -46.5 -6.5t-25 -18.5t-9 -23t-1.5 -29v-194q0 -55 -32.5 -88.5t-81.5 -33.5h-66v77h23q34 0 47 17.5t13 55.5v181q0 54 12 74.5t44 31.5q-30 10 -43 34.5t-13 70.5v193q0 25 -14.5 45.5t-45.5 20.5h-23v77h66
q51 0 82.5 -35t31.5 -87v-199z" />
    <glyph glyph-name="bracketleft.case" horiz-adv-x="301" 
d="M59 -103v879h224v-86h-125v-706h125v-87h-224z" />
    <glyph glyph-name="bracketright.case" horiz-adv-x="342" 
d="M283 -102h-224v87h125v706h-125v86h224v-879z" />
    <glyph glyph-name="parenleft.case" horiz-adv-x="282" 
d="M172 -109q-117 194 -117 449q0 265 120 451l85 -39q-101 -183 -101 -412q0 -218 99 -411z" />
    <glyph glyph-name="parenright.case" horiz-adv-x="282" 
d="M110 -109l-86 38q99 193 99 411q0 229 -101 412l85 39q120 -186 120 -451q0 -255 -117 -449z" />
    <glyph glyph-name="emdash.case" horiz-adv-x="1022" 
d="M44 274v100h934v-100h-934z" />
    <glyph glyph-name="endash.case" horiz-adv-x="556" 
d="M44 274v100h467v-100h-467z" />
    <glyph glyph-name="uni2015.case" horiz-adv-x="1182" 
d="M44 274v100h1093v-100h-1093z" />
    <glyph glyph-name="hyphen.case" horiz-adv-x="378" 
d="M44 282v104h289v-104h-289z" />
    <glyph glyph-name="guillemotleft.case" horiz-adv-x="494" 
d="M274 78h-112l-121 213l123 217h111l-123 -217zM465 78h-112l-121 213l123 217h111l-123 -217z" />
    <glyph glyph-name="guillemotright.case" horiz-adv-x="494" 
d="M29 77l122 213l-123 217h111l123 -217l-121 -213h-112zM220 77l122 213l-123 217h111l123 -217l-121 -213h-112z" />
    <glyph glyph-name="CR" horiz-adv-x="249" 
 />
    <glyph glyph-name="plus.case" horiz-adv-x="578" 
d="M237 92v184h-185v102h185v185h103v-185h185v-102h-185v-184h-103z" />
    <glyph glyph-name="at.case" horiz-adv-x="896" 
d="M663 539l-27 -262q-1 -10 -1 -25q0 -29 9 -39.5t28 -10.5q43 0 69.5 55t26.5 109q0 121 -79 203.5t-206 82.5q-73 0 -133.5 -21.5t-100 -56t-67 -80t-39.5 -92t-12 -92.5q0 -125 84.5 -212.5t199.5 -87.5q105 0 207 51l37 -61q-110 -73 -244 -73q-158 0 -264 109
t-106 275q0 53 14 108.5t47.5 112t82 100.5t125 72t169.5 28q168 0 270 -103t102 -262q0 -39 -10 -79t-33 -81t-68 -67t-106 -26q-59 0 -92 39q-11 13 -18 43h-1q-44 -72 -133 -72q-74 0 -120.5 52.5t-46.5 137.5q0 35 10.5 72.5t31.5 74.5t60.5 61t89.5 24q83 0 122 -72h1
l7 65h114zM428 225q48 0 79 37t31 86q0 42 -24.5 69.5t-60.5 27.5q-49 0 -80.5 -35.5t-31.5 -85.5q0 -44 24.5 -71.5t62.5 -27.5z" />
    <glyph glyph-name="NULL" horiz-adv-x="0" 
 />
    <glyph glyph-name="KB" horiz-adv-x="924" 
d="M473 -1q-94 0 -160 36.5t-94 94.5l21 9q71 -94 200 -94q53 0 87.5 25t34.5 76q0 43 -43.5 86t-117.5 71q-14 -51 -19 -74q42 -7 71 -17l-5 -36h-248l-1 34q49 34 98 50l73 382l-65 19l-2 30q47 29 117 29l70 -35l-63 -194l-66 -189l10 -2q35 131 90.5 187.5t130.5 56.5
q56 0 89 -24t33 -74q0 -60 -49 -98t-146 -38q-37 0 -69 4v-9q51 -6 86.5 -13.5t79.5 -24t67.5 -45.5t23.5 -69q0 -67 -62 -110.5t-172 -43.5zM410 330q90 3 131.5 40.5t41.5 83.5q0 21 -11 35.5t-30 14.5q-26 0 -63.5 -42.5t-68.5 -131.5zM49 -146l-12 39h6l9 -28l8 28h6
l8 -28l9 28h6l-12 -39h-6l-8 29l-8 -29h-6zM105 -146l-12 39h7l8 -28l8 28h7l7 -28l9 28h7l-12 -39h-7l-7 29l-9 -29h-6zM162 -146l-13 39h7l9 -28l7 28h7l8 -28l8 28h7l-12 -39h-6l-8 29l-9 -29h-5zM218 -146v39h7v-19l15 19h8l-15 -18l16 -21h-9l-11 16l-4 -5v-11h-7z
M270 -146q-20 0 -20 20q0 19 20 19q19 0 19 -19q0 -20 -19 -20zM309 -146q-10 0 -15 6l4 5q4 -5 11 -5q6 0 6 4t-7 7q-12 4 -12 11q0 11 12 11q8 0 13 -5l-4 -5q-4 4 -9 4t-5 -4q0 -3 7 -6q12 -4 12 -12q0 -11 -13 -11zM336 -146v33h-11v6h29v-6h-11v-33h-7zM353 -146l15 39
h6l15 -39h-7l-3 8h-16l-3 -8h-7zM406 -146q-9 0 -14 6l4 5q4 -5 10 -5t6 4t-7 7q-12 4 -12 11q0 11 12 11q8 0 13 -5l-4 -5q-4 4 -9 4t-5 -4q0 -3 7 -6q12 -3 12 -12q0 -11 -13 -11zM426 -146v39h14q13 0 13 -10q0 -7 -6 -8q8 -2 8 -10q0 -11 -13 -11h-16zM458 -146l14 39h7
l14 -39h-7l-3 8h-15l-3 -8h-7zM499 -146v39h15q13 0 13 -13q0 -9 -9 -11l10 -15h-8l-9 14h-5v-14h-7zM542 -146v33h-11v6h29v-6h-12v-33h-6zM578 -146q-10 0 -15 6l5 5q2 -5 10 -5q6 0 6 4t-7 7q-12 4 -12 11q0 11 12 11q8 0 13 -5l-4 -5q-4 4 -9 4t-5 -4q0 -3 7 -6
q12 -4 12 -12q0 -11 -13 -11zM616 -146q-19 0 -19 20q0 19 19 19q8 0 14 -5.5t6 -13.5q0 -20 -20 -20zM643 -146v39h7v-19l15 19h8l-14 -18l15 -21h-8l-12 16l-4 -5v-11h-7zM676 -146l14 39h7l14 -39h-6l-3 8h-16l-3 -8h-7zM729 -146q-9 0 -14 6l4 5q4 -5 10 -5t6 4t-7 7
q-12 4 -12 11q0 11 12 11q8 0 13 -5l-4 -5q-4 4 -9 4t-5 -4q0 -3 7 -6q12 -3 12 -12q0 -11 -13 -11zM779 -146q-20 0 -20 19q0 20 20 20q9 0 15 -7l-5 -4q-3 5 -10 5q-13 0 -13 -14q0 -13 13 -13q7 0 10 5l5 -4q-5 -7 -15 -7zM818 -146q-19 0 -19 20q0 19 19 19q20 0 20 -19
q0 -20 -20 -20zM846 -146v39h6l13 -23l13 23h6v-39h-6v26l-11 -19h-4l-11 19v-26h-6zM270 -140q12 0 12 14q0 13 -12 13q-13 0 -13 -13q0 -14 13 -14zM433 -124h6q7 0 7 6q0 5 -8 5h-5v-11zM506 -126h6q8 0 8 6q0 7 -7 7h-7v-13zM616 -140q13 0 13 14q0 13 -13 13
q-12 0 -12 -13q0 -14 12 -14zM818 -140q13 0 13 14q0 13 -13 13q-12 0 -12 -13q0 -14 12 -14zM365 -132h11l-5 17zM470 -132h11l-5 17zM688 -132h12l-6 17zM433 -140h7q8 0 8 5q0 6 -8 6h-7v-11zM207 -146q-4 0 -4 3q0 5 4 5q3 0 3 -5q0 -3 -3 -3zM751 -146q-4 0 -4 3
q0 5 4 5t4 -5q0 -3 -4 -3z" />
    <glyph glyph-name="jacute" horiz-adv-x="249" 
d="M74 565l115 144l123 1l-124 -145h-114zM46 -206q-51 0 -95 18l19 97q22 -14 44 -14q25 0 40.5 18.5t15.5 53.5v521h112v-521q0 -82 -38 -127.5t-98 -45.5z" />
    <glyph glyph-name="Jacute" horiz-adv-x="507" 
d="M316 785l115 144l123 1l-124 -145h-114zM219 -6q-53 0 -104 23t-84 66l68 88q22 -26 53 -44.5t62 -18.5q96 0 96 136v466h121v-467q0 -122 -50 -185.5t-162 -63.5z" />
    </font>
</defs>
</svg>
